<?xml version="1.0" standalone="no"?>
<!DOCTYPE svg PUBLIC "-//W3C//DTD SVG 1.1//EN" "http://www.w3.org/Graphics/SVG/1.1/DTD/svg11.dtd" >
<svg xmlns="http://www.w3.org/2000/svg">
<metadata>Generated by IcoMoon</metadata>
<defs>
<font id="icomoon" horiz-adv-x="1024">
<font-face units-per-em="1024" ascent="960" descent="-64" />
<missing-glyph horiz-adv-x="1024" />
<glyph unicode="&#x20;" horiz-adv-x="512" d="" />
<glyph unicode="&#xe900;" glyph-name="abstract-1" d="M492.373 55.893l-145.92 219.307c-7.808 11.571-12.464 25.828-12.464 41.173s4.656 29.603 12.631 41.438l-0.168-0.264 141.227 213.333c1.82 2.841 2.902 6.308 2.902 10.027s-1.081 7.185-2.947 10.102l0.045-0.075-103.68 151.467c-6.397 9.584-10.208 21.368-10.208 34.042 0 21.261 10.725 40.018 27.060 51.154l0.214 0.138 42.667 28.587c9.584 6.397 21.368 10.208 34.042 10.208 21.261 0 40.018-10.725 51.154-27.060l0.138-0.214 148.48-220.587c7.808-11.571 12.464-25.828 12.464-41.173s-4.656-29.603-12.631-41.438l0.168 0.264-141.227-213.333c-1.82-2.841-2.902-6.308-2.902-10.027s1.081-7.185 2.947-10.102l-0.045 0.075 103.68-149.333c6.397-9.584 10.208-21.368 10.208-34.042 0-21.261-10.725-40.018-27.060-51.154l-0.214-0.138-42.667-28.587c-10.030-7.304-22.596-11.686-36.185-11.686-21.525 0-40.483 10.993-51.565 27.671l-0.142 0.228z" />
<glyph unicode="&#xe901;" glyph-name="abstract-2" d="M768 704v-256c0-141.385-114.615-256-256-256s-256 114.615-256 256v0 256h512zM896 874.667h-768c-23.564 0-42.667-19.103-42.667-42.667v0-384c0-235.641 191.025-426.667 426.667-426.667v0 0c235.641 0 426.667 191.025 426.667 426.667v0 384c0 23.564-19.103 42.667-42.667 42.667v0z" />
<glyph unicode="&#xe902;" glyph-name="abstract-3" d="M926.293 478.293l-384 384c-7.733 7.795-18.45 12.621-30.293 12.621s-22.56-4.826-30.291-12.618l-384.003-384.003c-7.795-7.733-12.621-18.45-12.621-30.293s4.826-22.56 12.618-30.291l384.003-384.003c7.733-7.795 18.45-12.621 30.293-12.621s22.56 4.826 30.291 12.618l384.003 384.003c7.795 7.733 12.621 18.45 12.621 30.293s-4.826 22.56-12.618 30.291l-0.003 0.003zM512 651.093l117.76-117.76h-235.52zM512 244.907l-117.76 117.76h235.52z" />
<glyph unicode="&#xe903;" glyph-name="abstract-4" d="M512 651.093l203.093-203.093-203.093-203.093-203.093 203.093 203.093 203.093zM512 874.667c-0.073 0-0.16 0.001-0.247 0.001-11.721 0-22.338-4.726-30.049-12.377l-383.997-383.997c-7.795-7.733-12.621-18.45-12.621-30.293s4.826-22.56 12.618-30.291l384.003-384.003c7.733-7.795 18.45-12.621 30.293-12.621s22.56 4.826 30.291 12.618l384.003 384.003c7.795 7.733 12.621 18.45 12.621 30.293s-4.826 22.56-12.618 30.291l-384.003 384.003c-7.709 7.648-18.326 12.374-30.047 12.374-0.087 0-0.173 0-0.26-0.001h0.013z" />
<glyph unicode="&#xe904;" glyph-name="abstract-5" d="M512 874.667c-235.641 0-426.667-191.025-426.667-426.667s191.025-426.667 426.667-426.667c235.641 0 426.667 191.025 426.667 426.667v0c0 235.641-191.025 426.667-426.667 426.667v0zM682.667 320c0-23.564-19.103-42.667-42.667-42.667v0h-256c-23.564 0-42.667 19.103-42.667 42.667v0 256c0 23.564 19.103 42.667 42.667 42.667v0h256c23.564 0 42.667-19.103 42.667-42.667v0z" />
<glyph unicode="&#xe905;" glyph-name="abstract-6" d="M810.667 533.333h-8.107c4.977 12.646 7.936 27.286 8.106 42.596l0.001 0.071c0 70.692-57.308 128-128 128v0c-26.776-0.075-51.603-8.359-72.112-22.468l0.432 0.281c-37.668 63.804-106.077 105.932-184.326 105.932-117.262 0-212.427-94.609-213.327-211.659l-0.001-0.086c0.149-15.183 1.695-29.91 4.516-44.179l-0.249 1.512h-4.267c-70.692 0-128-57.308-128-128s57.308-128 128-128v0h170.667l189.44-189.44c7.053-7.194 16.872-11.654 27.734-11.654 21.443 0 38.827 17.383 38.827 38.827 0 0.047 0 0.094 0 0.141v-0.007 162.133h170.667c70.692 0 128 57.308 128 128s-57.308 128-128 128v0z" />
<glyph unicode="&#xe906;" glyph-name="abstract-7" d="M512 688.64l208.64-120.32v-240.64l-208.64-120.32-208.64 120.32v240.64l208.64 120.32zM512 874.667c-0.145 0.001-0.316 0.002-0.488 0.002-13.006 0-25.198-3.485-35.694-9.571l0.342 0.183-305.493-177.92c-21.568-12.521-35.84-35.509-35.84-61.83 0-0.013 0-0.026 0-0.039v0.002-354.987c0-0.011 0-0.024 0-0.037 0-26.321 14.272-49.309 35.5-61.647l0.34-0.183 307.627-177.92c10.31-5.919 22.668-9.41 35.84-9.41s25.53 3.491 36.197 9.598l-0.357-0.188 307.627 177.92c21.568 12.521 35.84 35.509 35.84 61.83 0 0.013 0 0.026 0 0.039v-0.002 354.987c0 0.011 0 0.024 0 0.037 0 26.321-14.272 49.309-35.5 61.647l-0.34 0.183-309.76 177.92c-10.154 5.904-22.346 9.388-35.352 9.388-0.172 0-0.343-0.001-0.514-0.002h0.026z" />
<glyph unicode="&#xe907;" glyph-name="abstract-8" d="M938.667 448c0-235.641-191.025-426.667-426.667-426.667s-426.667 191.025-426.667 426.667c0 235.641 191.025 426.667 426.667 426.667v0c235.641 0 426.667-191.025 426.667-426.667v0zM512 704c-141.385 0-256-114.615-256-256s114.615-256 256-256c141.385 0 256 114.615 256 256v0c0 141.385-114.615 256-256 256v0z" />
<glyph unicode="&#xe908;" glyph-name="abstract-9" d="M725.333 661.333v-426.667h-426.667v426.667h426.667zM853.333 832h-682.667c-23.564 0-42.667-19.103-42.667-42.667v0-682.667c0-23.564 19.103-42.667 42.667-42.667v0h682.667c23.564 0 42.667 19.103 42.667 42.667v0 682.667c0 23.564-19.103 42.667-42.667 42.667v0z" />
<glyph unicode="&#xe909;" glyph-name="abstract-10" d="M853.333 533.333h-256v256c0 23.564-19.103 42.667-42.667 42.667v0h-85.333c-23.564 0-42.667-19.103-42.667-42.667v0-256h-256c-23.564 0-42.667-19.103-42.667-42.667v0-85.333c0-23.564 19.103-42.667 42.667-42.667v0h256v-256c0-23.564 19.103-42.667 42.667-42.667v0h85.333c23.564 0 42.667 19.103 42.667 42.667v0 256h256c23.564 0 42.667 19.103 42.667 42.667v0 85.333c0 23.564-19.103 42.667-42.667 42.667v0z" />
<glyph unicode="&#xe90a;" glyph-name="abstract-11" d="M632.747 448l180.907 180.907c7.795 7.733 12.621 18.45 12.621 30.293s-4.826 22.56-12.618 30.291l-60.163 60.163c-7.733 7.795-18.45 12.621-30.293 12.621s-22.56-4.826-30.291-12.618l-180.91-180.91-180.907 180.907c-7.733 7.795-18.45 12.621-30.293 12.621s-22.56-4.826-30.291-12.618l-60.163-60.163c-7.795-7.733-12.621-18.45-12.621-30.293s4.826-22.56 12.618-30.291l180.91-180.91-180.907-180.907c-7.795-7.733-12.621-18.45-12.621-30.293s4.826-22.56 12.618-30.291l60.163-60.163c7.733-7.795 18.45-12.621 30.293-12.621s22.56 4.826 30.291 12.618l180.91 180.91 180.907-180.907c7.733-7.795 18.45-12.621 30.293-12.621s22.56 4.826 30.291 12.618l60.163 60.163c7.795 7.733 12.621 18.45 12.621 30.293s-4.826 22.56-12.618 30.291l-0.003 0.003z" />
<glyph unicode="&#xe90b;" glyph-name="abstract-12" d="M554.667 21.333h-85.333c-23.564 0-42.667 19.103-42.667 42.667v0 128c0 23.564 19.103 42.667 42.667 42.667v0h85.333c23.564 0 42.667-19.103 42.667-42.667v0-128c0-23.564-19.103-42.667-42.667-42.667v0zM776.533 502.187l110.507 64c12.853 7.512 21.35 21.244 21.35 36.96 0 7.747-2.064 15.011-5.673 21.273l0.11-0.207-42.667 74.24c-7.53 12.777-21.22 21.215-36.882 21.215-7.952 0-15.395-2.175-21.768-5.963l0.197 0.108-110.507-64c-12.853-7.512-21.35-21.244-21.35-36.96 0-7.747 2.064-15.011 5.673-21.273l-0.11 0.207 42.667-74.24c7.53-12.777 21.22-21.215 36.882-21.215 7.952 0 15.395 2.175 21.768 5.963l-0.197-0.108zM332.8 649.813l-110.507 64c-6.176 3.68-13.62 5.855-21.572 5.855-15.661 0-29.352-8.438-36.773-21.016l-0.109-0.199-42.667-74.24c-3.499-6.055-5.563-13.32-5.563-21.067 0-15.716 8.497-29.448 21.148-36.851l0.202-0.109 110.507-64c6.176-3.68 13.62-5.855 21.572-5.855 15.661 0 29.352 8.438 36.773 21.016l0.109 0.199 42.667 74.24c3.499 6.055 5.563 13.32 5.563 21.067 0 15.716-8.497 29.448-21.148 36.851l-0.202 0.109zM554.667 661.333h-85.333c-23.564 0-42.667 19.103-42.667 42.667v0 128c0 23.564 19.103 42.667 42.667 42.667v0h85.333c23.564 0 42.667-19.103 42.667-42.667v0-128c0-23.564-19.103-42.667-42.667-42.667v0zM222.293 182.187l110.507 64c12.853 7.512 21.35 21.244 21.35 36.96 0 7.747-2.064 15.011-5.673 21.273l0.11-0.207-42.667 74.24c-7.53 12.777-21.22 21.215-36.882 21.215-7.952 0-15.395-2.175-21.768-5.963l0.197 0.108-110.507-64c-12.853-7.512-21.35-21.244-21.35-36.96 0-7.747 2.064-15.011 5.673-21.273l-0.11 0.207 42.667-74.24c7.53-12.777 21.22-21.215 36.882-21.215 7.952 0 15.395 2.175 21.768 5.963l-0.197-0.108zM887.040 329.813l-110.507 64c-6.176 3.68-13.62 5.855-21.572 5.855-15.661 0-29.352-8.438-36.773-21.016l-0.109-0.199-42.667-74.24c-3.499-6.055-5.563-13.32-5.563-21.067 0-15.716 8.497-29.448 21.148-36.851l0.202-0.109 110.507-64c6.176-3.68 13.62-5.855 21.572-5.855 15.661 0 29.352 8.438 36.773 21.016l0.109 0.199 42.667 74.24c3.499 6.055 5.563 13.32 5.563 21.067 0 15.716-8.497 29.448-21.148 36.851l-0.202 0.109z" />
<glyph unicode="&#xe90c;" glyph-name="abstract-13" d="M512 738.133l251.307-145.067v-290.133l-251.307-145.067-251.307 145.067v290.133l251.307 145.067zM512 874.667c-13.167-0.132-25.498-3.595-36.225-9.584l0.385 0.198-305.493-177.92c-21.568-12.521-35.84-35.509-35.84-61.83 0-0.013 0-0.026 0-0.039v0.002-354.987c0-0.011 0-0.024 0-0.037 0-26.321 14.272-49.309 35.5-61.647l0.34-0.183 307.627-177.92c10.31-5.919 22.668-9.41 35.84-9.41s25.53 3.491 36.197 9.598l-0.357-0.188 307.627 177.92c21.568 12.521 35.84 35.509 35.84 61.83 0 0.013 0 0.026 0 0.039v-0.002 354.987c0 0.011 0 0.024 0 0.037 0 26.321-14.272 49.309-35.5 61.647l-0.34 0.183-309.76 177.92c-10.343 5.791-22.673 9.254-35.8 9.386h-0.040zM512 519.253c-39.352 0-71.253-31.901-71.253-71.253s31.901-71.253 71.253-71.253c39.352 0 71.253 31.901 71.253 71.253v0c0 39.352-31.901 71.253-71.253 71.253v0z" />
<glyph unicode="&#xe90d;" glyph-name="abstract-14" d="M896 661.333h-768c-23.564 0-42.667 19.103-42.667 42.667v0 85.333c0 23.564 19.103 42.667 42.667 42.667v0h768c23.564 0 42.667-19.103 42.667-42.667v0-85.333c0-23.564-19.103-42.667-42.667-42.667v0zM938.667 405.333v85.333c0 23.564-19.103 42.667-42.667 42.667v0h-768c-23.564 0-42.667-19.103-42.667-42.667v0-85.333c0-23.564 19.103-42.667 42.667-42.667v0h768c23.564 0 42.667 19.103 42.667 42.667v0zM896 64h-768c-23.564 0-42.667 19.103-42.667 42.667v0 85.333c0 23.564 19.103 42.667 42.667 42.667v0h768c23.564 0 42.667-19.103 42.667-42.667v0-85.333c0-23.564-19.103-42.667-42.667-42.667v0z" />
<glyph unicode="&#xe90e;" glyph-name="abstract-15" d="M516.267 24.747l-75.52 33.707c-14.379 7.065-24.101 21.605-24.101 38.416 0 5.842 1.174 11.409 3.299 16.479l-0.105-0.281 16.64 37.973c18.593 38.613 29.458 83.958 29.458 131.84s-10.864 93.227-30.262 133.703l0.804-1.863c-27.681 58.299-43.844 126.675-43.844 198.827s16.163 140.527 45.067 201.704l-1.223-2.877 16.64 37.547c6.995 14.574 21.636 24.458 38.586 24.458 5.777 0 11.285-1.148 16.31-3.228l-0.283 0.104 75.52-33.707c14.379-7.065 24.101-21.605 24.101-38.416 0-5.842-1.174-11.409-3.299-16.479l0.105 0.281-16.64-36.267c-18.593-38.613-29.458-83.958-29.458-131.84s10.864-93.227 30.262-133.703l-0.804 1.863c27.681-58.299 43.844-126.675 43.844-198.827s-16.163-140.527-45.067-201.704l1.223 2.877-16.64-37.547c-6.684-15.361-21.729-25.907-39.237-25.907-5.531 0-10.815 1.052-15.665 2.968l0.289-0.101zM864.853 46.080l16.64 37.547c27.573 58.319 43.67 126.693 43.67 198.827s-16.097 140.507-44.896 201.725l1.225-2.898c-18.593 38.613-29.458 83.958-29.458 131.84s10.864 93.227 30.262 133.703l-0.804-1.863 17.067 37.973c2.020 4.789 3.194 10.356 3.194 16.198 0 16.811-9.722 31.351-23.85 38.304l-0.251 0.111-75.52 33.707c-4.742 1.977-10.25 3.125-16.027 3.125-16.95 0-31.591-9.884-38.475-24.202l-0.111-0.256-17.067-37.547c-27.681-58.299-43.844-126.675-43.844-198.827s16.163-140.527 45.067-201.704l-1.223 2.877c18.593-38.613 29.458-83.958 29.458-131.84s-10.864-93.227-30.262-133.703l0.804 1.863-16.64-37.973c-2.020-4.789-3.194-10.356-3.194-16.198 0-16.811 9.722-31.351 23.85-38.304l0.251-0.111 75.52-33.707c4.742-1.977 10.25-3.125 16.027-3.125 16.95 0 31.591 9.884 38.475 24.202l0.111 0.256zM276.48 46.080l17.067 37.547c27.681 58.299 43.844 126.675 43.844 198.827s-16.163 140.527-45.067 201.704l1.223-2.877c-18.845 38.838-29.86 84.479-29.86 132.693s11.015 93.855 30.666 134.544l-0.806-1.85 16.64 37.973c2.020 4.789 3.194 10.356 3.194 16.198 0 16.811-9.722 31.351-23.85 38.304l-0.251 0.111-75.947 32c-4.742 1.977-10.25 3.125-16.027 3.125-16.95 0-31.591-9.884-38.475-24.202l-0.111-0.256-16.64-37.547c-27.573-58.319-43.67-126.693-43.67-198.827s16.097-140.507 44.896-201.725l-1.225 2.898c18.593-38.613 29.458-83.958 29.458-131.84s-10.864-93.227-30.262-133.703l0.804 1.863-17.067-37.973c-2.020-4.789-3.194-10.356-3.194-16.198 0-16.811 9.722-31.351 23.85-38.304l0.251-0.111 75.52-33.707c4.84-2.069 10.472-3.272 16.385-3.272 17.007 0 31.69 9.95 38.544 24.347l0.111 0.258z" />
<glyph unicode="&#xe90f;" glyph-name="abstract-16" d="M88.747 443.733l33.707 75.52c7.065 14.379 21.605 24.101 38.416 24.101 5.842 0 11.409-1.174 16.479-3.299l-0.281 0.105 37.973-16.64c38.613-18.593 83.958-29.458 131.84-29.458s93.227 10.864 133.703 30.262l-1.863-0.804c58.299 27.681 126.675 43.844 198.827 43.844s140.527-16.163 201.704-45.067l-2.877 1.223 37.547-16.64c14.574-6.995 24.458-21.636 24.458-38.586 0-5.777-1.148-11.285-3.228-16.31l0.104 0.283-33.707-75.52c-7.065-14.379-21.605-24.101-38.416-24.101-5.842 0-11.409 1.174-16.479 3.299l0.281-0.105-36.267 16.64c-38.613 18.593-83.958 29.458-131.84 29.458s-93.227-10.864-133.703-30.262l1.863 0.804c-58.299-27.681-126.675-43.844-198.827-43.844s-140.527 16.163-201.704 45.067l2.877-1.223-37.547 16.64c-15.361 6.684-25.907 21.729-25.907 39.237 0 5.531 1.052 10.815 2.968 15.665l-0.101-0.289zM110.080 95.147l37.547-16.64c58.319-27.573 126.693-43.67 198.827-43.67s140.507 16.097 201.725 44.896l-2.898-1.225c38.613 18.593 83.958 29.458 131.84 29.458s93.227-10.864 133.703-30.262l-1.863 0.804 37.973-17.067c4.789-2.020 10.356-3.194 16.198-3.194 16.811 0 31.351 9.722 38.304 23.85l0.111 0.251 33.707 75.52c1.977 4.742 3.125 10.25 3.125 16.027 0 16.95-9.884 31.591-24.202 38.475l-0.256 0.111-37.547 17.067c-58.299 27.681-126.675 43.844-198.827 43.844s-140.527-16.163-201.704-45.067l2.877 1.223c-38.613-18.593-83.958-29.458-131.84-29.458s-93.227 10.864-133.703 30.262l1.863-0.804-37.973 16.64c-4.789 2.020-10.356 3.194-16.198 3.194-16.811 0-31.351-9.722-38.304-23.85l-0.111-0.251-33.707-75.947c-1.886-4.642-2.981-10.028-2.981-15.669 0-16.894 9.819-31.495 24.061-38.407l0.254-0.111zM110.080 683.52l37.547-17.067c58.299-27.681 126.675-43.844 198.827-43.844s140.527 16.163 201.704 45.067l-2.877-1.223c38.613 18.593 83.958 29.458 131.84 29.458s93.227-10.864 133.703-30.262l-1.863 0.804 37.973-16.64c4.789-2.020 10.356-3.194 16.198-3.194 16.811 0 31.351 9.722 38.304 23.85l0.111 0.251 33.707 75.947c1.977 4.742 3.125 10.25 3.125 16.027 0 16.95-9.884 31.591-24.202 38.475l-0.256 0.111-37.547 16.64c-58.319 27.573-126.693 43.67-198.827 43.67s-140.507-16.097-201.725-44.896l2.898 1.225c-38.957-18.979-84.754-30.074-133.143-30.074-48.039 0-93.524 10.935-134.101 30.453l1.857-0.805-37.973 17.067c-4.789 2.020-10.356 3.194-16.198 3.194-16.811 0-31.351-9.722-38.304-23.85l-0.111-0.251-32-75.52c-1.977-4.742-3.125-10.25-3.125-16.027 0-16.95 9.884-31.591 24.202-38.475l0.256-0.111z" />
<glyph unicode="&#xe910;" glyph-name="abstract-17" d="M456.107 503.893c113.362 114.412 266.992 188.756 437.856 199.999l2.037 0.107c23.939 1.83 42.67 21.704 42.67 45.954 0 0.194-0.001 0.389-0.004 0.582v-0.029 81.493c0 23.564-19.103 42.667-42.667 42.667v0c-438.548-22.091-788.575-372.119-810.585-808.635l-0.082-2.032c0-23.564 19.103-42.667 42.667-42.667v0h82.773c23.94 0.39 43.417 18.977 45.217 42.51l0.010 0.156c11.35 172.9 85.694 326.53 200.055 439.842l0.052 0.051zM637.013 322.987c67.144 67.691 157.024 112.741 257.226 122.738l1.76 0.142c23.457 1.988 41.852 21.122 42.665 44.722l0.002 0.078v85.333c0 0.051 0 0.112 0 0.173 0 23.564-19.103 42.667-42.667 42.667-1.352 0-2.689-0.063-4.009-0.186l0.169 0.013c-294.573-22.833-527.993-256.254-550.699-548.777l-0.128-2.049c-0.11-1.151-0.173-2.488-0.173-3.84 0-23.564 19.103-42.667 42.667-42.667 0.061 0 0.122 0 0.183 0h85.324c0.047 0 0.103 0 0.159 0 24.333 0 44.302 18.688 46.336 42.495l0.012 0.172c9.648 101.768 54.115 191.65 121.188 259.001l-0.014-0.014zM697.173 262.827c50.669 50.601 117.17 85.359 191.433 96.205l1.847 0.221c1.666 0.231 3.592 0.362 5.548 0.362 23.564 0 42.667-19.103 42.667-42.667 0-0.127-0.001-0.255-0.002-0.382v0.019-81.92c-0.425-22.867-16.848-41.777-38.524-46.031l-0.303-0.049c-63.716-15.042-112.957-64.284-127.769-126.841l-0.231-1.159c-4.155-22.3-23.344-38.997-46.479-39.253h-82.374c-0.108-0.001-0.235-0.002-0.362-0.002-23.564 0-42.667 19.103-42.667 42.667 0 1.956 0.132 3.882 0.387 5.768l-0.024-0.22c11.191 76.154 46.094 142.655 96.846 193.273l0.007 0.007z" />
<glyph unicode="&#xe911;" glyph-name="abstract-18" d="M768 21.333h-512c-22.117 1.748-39.402 20.126-39.402 42.542 0 8.97 2.768 17.293 7.496 24.162l-0.094-0.144 220.16 274.773c15.749 20.492 40.267 33.569 67.84 33.569s52.091-13.077 67.691-33.368l0.149-0.201 220.587-275.627c4.29-6.544 6.843-14.561 6.843-23.175 0-22.368-17.213-40.717-39.116-42.521l-0.154-0.010zM768 874.667h-512c-22.117-1.748-39.402-20.126-39.402-42.542 0-8.97 2.768-17.293 7.496-24.162l-0.094 0.144 220.16-274.773c15.749-20.492 40.267-33.569 67.84-33.569s52.091 13.077 67.691 33.368l0.149 0.201 220.587 275.627c4.29 6.544 6.843 14.561 6.843 23.175 0 22.368-17.213 40.717-39.116 42.521l-0.154 0.010z" />
<glyph unicode="&#xe912;" glyph-name="abstract-19" d="M933.973 117.333c3.060-5.13 4.869-11.314 4.869-17.92 0-19.558-15.855-35.413-35.413-35.413-0.062 0-0.123 0-0.185 0h-391.244l226.133 392.107zM285.867 456.107l-195.84-338.773c-3.060-5.13-4.869-11.314-4.869-17.92 0-19.558 15.855-35.413 35.413-35.413 0.062 0 0.123 0 0.185 0h391.244zM541.867 794.88l195.413-338.773h-451.413l195.413 338.773c6.225 10.71 17.645 17.796 30.72 17.796s24.495-7.086 30.629-17.627l0.091-0.169z" />
<glyph unicode="&#xe913;" glyph-name="abstract-20" d="M725.333 79.787c-61.029-36.611-134.632-58.316-213.294-58.453h-0.039c-235.641 0-426.667 191.025-426.667 426.667s191.025 426.667 426.667 426.667v0c78.702-0.137 152.305-21.842 215.251-59.517l-1.917 1.064c-31.903 9.913-68.591 15.675-106.608 15.787h-0.058c-212.077 0-384-171.923-384-384s171.923-384 384-384v0c38.076 0.112 74.764 5.873 109.327 16.49l-2.66-0.703zM618.667 768c-158.962-0.179-290.764-116.237-315.486-268.237l-0.247-1.843h2.133c23.273 94.507 107.295 163.499 207.431 163.499 117.821 0 213.333-95.513 213.333-213.333s-95.513-213.333-213.333-213.333c-90.487 0-167.816 56.337-198.826 135.848l-0.499 1.453h-5.12c35.346-141.161 161.086-244.053 310.857-244.053 176.731 0 320 143.269 320 320s-143.269 320-320 320c-0.086 0-0.171 0-0.257 0h0.013z" />
<glyph unicode="&#xe914;" glyph-name="abstract-21" d="M399.36 203.947v0c-33.503 5.364-62.749 20.648-85.366 42.699l0.033-0.032c-20.911 21.152-35.958 48.143-42.476 78.309l-0.19 1.051c-2.193 9.756-3.449 20.961-3.449 32.459 0 20.741 4.088 40.527 11.503 58.597l-0.374-1.029c4.228 10.223 8.803 18.92 14.063 27.137l-0.409-0.684c6.161 10.018 13.071 18.692 20.896 26.442l0.011 0.011c21.561 21.221 49.193 36.334 80.054 42.498l1.013 0.169c8.745 1.902 18.791 2.992 29.091 2.992 0.423 0 0.845-0.002 1.267-0.005h1.643c31.986-0.283 61.538-10.465 85.806-27.624l-0.473 0.317c25.097-17.564 44.415-41.83 55.533-70.209l0.36-1.044c7.534-2.11 16.196-3.352 25.138-3.413h0.036c15.425 0.258 30.051 3.368 43.475 8.824l-0.808-0.29c14.584 6.238 27.042 14.73 37.552 25.179l-0.006-0.006c10.45 10.364 18.941 22.683 24.882 36.367l0.291 0.753c5.29 12.587 8.544 27.191 8.957 42.504l0.003 0.163v13.227c-14.009 21.655-29.196 40.503-46.116 57.636l0.036-0.036c-5.973 5.973-34.133 29.867-35.413 30.72-54.537 42.628-123.688 68.879-198.911 70.395l-0.343 0.005h-7.68c-15.208-0.162-29.996-1.242-44.51-3.189l1.843 0.202-17.067-3.413-29.44-6.827-18.347-6.4-26.88-10.667-16.64-6.4c-3.788-1.647-6.87-3.216-9.851-4.941l0.464 0.248c-5.973-2.987-11.52-7.253-17.067-10.667l-9.387-5.547c-39.612-27.078-72.292-61.256-96.882-100.969l-0.825-1.431c-29.238-47.628-47.25-104.945-49.055-166.329l-0.012-0.498c-0.131-3.502-0.206-7.616-0.206-11.747 0-56.847 14.126-110.394 39.059-157.323l-0.881 1.816c53.794-103.343 156.837-174.524 277.165-182.559l1.022-0.055c6.521-0.449 14.133-0.705 21.805-0.705 114.154 0 215.070 56.675 276.147 143.422l0.714 1.070c-31.843-10.533-68.552-17.021-106.646-17.912l-0.448-0.008c-71.877 1.068-138.638 22.055-195.275 57.667l1.569-0.92zM905.387 683.093c-42.178 86.206-117.438 150.741-208.806 177.74l-2.394 0.607c-27.751 8.328-59.641 13.122-92.65 13.122-16.534 0-32.787-1.203-48.676-3.525l1.806 0.217c-98.438-13.518-182.018-67.893-234.337-145.162l-0.756-1.184c32.067 9.742 68.924 15.354 107.090 15.36h0.004c0.382 0.001 0.835 0.002 1.288 0.002 72.425 0 140.065-20.482 197.445-55.971l-1.613 0.929c33.561-5.126 62.867-20.459 85.348-42.681l-0.015 0.015c20.985-20.955 36.052-47.83 42.483-77.906l0.184-1.027c2.193-9.756 3.449-20.961 3.449-32.459 0-20.741-4.088-40.527-11.503-58.597l0.374 1.029c-2.587-6.856-5.314-12.619-8.438-18.128l0.331 0.635c2.77 4.562 5.622 10.024 8.144 15.665l0.389 0.975c-8.529-21.377-20.518-39.667-35.456-55.084l0.042 0.044c-28.294-28.088-67.273-45.447-110.305-45.447-65.825 0-122.163 40.616-145.32 98.154l-0.374 1.053-26.453 2.987c-0.214 0.001-0.467 0.002-0.72 0.002-16.254 0-31.701-3.456-45.646-9.673l0.713 0.284c-14.959-6.373-27.715-15.163-38.384-26.011l-0.016-0.016c-10.355-11.025-18.727-24.056-24.456-38.427l-0.291-0.827c-4.685-11.966-7.4-25.821-7.4-40.311 0-2.029 0.053-4.046 0.158-6.049l-0.012 0.28v-10.667c13.481-21.539 28.121-40.249 44.486-57.291l-0.112 0.118c40.983-40.886 92.42-71.311 149.953-86.92l2.367-0.547c25.599-4.782 55.103-7.572 85.239-7.68h0.094c46.26 0.303 90.211 9.843 130.212 26.863l-2.212-0.836c42.767 18.029 79.216 43.123 109.594 74.18l0.059 0.060c34.842 31.22 62.827 69.32 81.937 112.243l0.837 2.104c16.276 38.247 25.737 82.737 25.737 129.436 0 53.317-12.332 103.754-34.3 148.613l0.883-1.996z" />
<glyph unicode="&#xe915;" glyph-name="abstract-22" d="M779.947 533.333h-267.947v272.64c-2.873 21.022-20.712 37.047-42.295 37.047-13.879 0-26.209-6.626-34.001-16.888l-0.077-0.106-228.693-399.787c-3.443-6.017-5.473-13.225-5.473-20.907 0-23.538 19.061-42.625 42.589-42.667h267.951v-272.64c2.873-21.022 20.712-37.047 42.295-37.047 13.879 0 26.209 6.626 34.001 16.888l0.077 0.106 228.693 399.787c3.443 6.017 5.473 13.225 5.473 20.907 0 23.538-19.061 42.625-42.589 42.667h-0.004z" />
<glyph unicode="&#xe916;" glyph-name="abstract-23" d="M892.16 579.84h-256l-81.493 244.053c-6.11 19.042-23.66 32.583-44.373 32.583s-38.263-13.541-44.282-32.254l-0.091-0.329-77.653-244.053h-256c-0.524 0.021-1.139 0.033-1.757 0.033-25.685 0-46.507-20.822-46.507-46.507 0-16.175 8.257-30.421 20.786-38.753l0.171-0.107 207.787-150.613-79.787-242.773c-1.481-4.345-2.336-9.35-2.336-14.556 0-25.685 20.822-46.507 46.507-46.507 10.35 0 19.91 3.381 27.636 9.098l-0.126-0.089 207.36 150.613 207.36-150.613c7.6-5.628 17.16-9.009 27.51-9.009 25.685 0 46.507 20.822 46.507 46.507 0 5.205-0.855 10.211-2.433 14.883l0.096-0.328-79.36 244.053 207.787 150.613c11.613 8.558 19.064 22.182 19.064 37.547 0 25.637-20.744 46.429-46.363 46.506h-0.007z" />
<glyph unicode="&#xe917;" glyph-name="abstract-24" d="M104.96 441.6c-11.744-6.93-19.498-19.519-19.498-33.92s7.755-26.99 19.316-33.82l0.183-0.1 150.613-85.333v-174.080c0-0.041 0-0.090 0-0.139 0-21.679 17.574-39.253 39.253-39.253 7.226 0 13.997 1.953 19.812 5.359l-0.185-0.1 151.040 85.333v239.787l-209.493 123.307zM919.040 441.6l-150.613 85.333-209.92-121.6v-241.92l151.040-85.333c5.63-3.306 12.4-5.259 19.627-5.259 21.679 0 39.253 17.574 39.253 39.253 0 0.049 0 0.098 0 0.147v-0.008 174.507l150.613 85.333c12.605 6.702 21.042 19.752 21.042 34.773s-8.437 28.071-20.831 34.67l-0.212 0.103zM662.613 817.493l-150.613-87.040-150.613 85.333c-5.63 3.306-12.4 5.259-19.627 5.259-21.679 0-39.253-17.574-39.253-39.253 0-0.049 0-0.098 0-0.147v0.008-172.373l209.493-120.747 209.493 120.747v174.080c0 0.041 0 0.090 0 0.139 0 21.679-17.574 39.253-39.253 39.253-7.226 0-13.997-1.953-19.812-5.359l0.185 0.1z" />
<glyph unicode="&#xe918;" glyph-name="abstract-25" d="M896 332.8l-213.333-123.307c-12.239-7.187-26.957-11.432-42.667-11.432s-30.427 4.245-43.069 11.651l0.403-0.218-213.333 123.307c-25.304 14.8-42.154 41.643-42.666 72.461l-0.001 0.072v247.467c0 0.101-0.001 0.22-0.001 0.339 0 31.419 16.98 58.872 42.265 73.683l0.403 0.218 213.333 122.88c12.239 7.187 26.957 11.432 42.667 11.432s30.427-4.245 43.069-11.651l-0.403 0.218 213.333-122.88c25.687-15.029 42.667-42.482 42.667-73.901 0-0.119 0-0.238-0.001-0.357v0.018-247.467c-0.513-30.891-17.363-57.733-42.264-72.315l-0.403-0.218zM362.667 295.68c-38.193 22.344-63.548 62.987-64 109.589v157.504c-15.719-0.029-30.434-4.303-43.066-11.738l0.4 0.218-128-73.813c-25.186-14.727-41.996-41.381-42.665-72.012l-0.002-0.094v-148.053c0.033-31.385 17.005-58.799 42.264-73.595l0.403-0.218 128-76.8c12.239-7.187 26.957-11.432 42.667-11.432s30.427 4.245 43.069 11.651l-0.403-0.218 128 73.813c13.692 8.219 24.697 19.634 32.197 33.252l0.229 0.454zM853.333 192c-12.239 7.187-26.957 11.432-42.667 11.432-47.128 0-85.333-38.205-85.333-85.333s38.205-85.333 85.333-85.333c47.128 0 85.333 38.205 85.333 85.333 0 0.031 0 0.061 0 0.092v-0.005c-0.033 31.385-17.005 58.799-42.264 73.595l-0.403 0.218z" />
<glyph unicode="&#xe919;" glyph-name="abstract-26" d="M469.333 490.667l-352 140.373c-19.070 7.736-32.273 26.113-32.273 47.573s13.204 39.838 31.931 47.45l0.343 0.123 352 139.947c12.64 5.143 27.305 8.128 42.667 8.128s30.026-2.985 43.446-8.406l-0.779 0.278 350.72-139.947c19.070-7.736 32.273-26.113 32.273-47.573s-13.204-39.838-31.931-47.45l-0.343-0.123-350.72-140.373c-12.667-4.95-27.332-7.819-42.667-7.819s-30 2.869-43.488 8.099l0.821-0.28zM907.947 264.96l-54.613 21.76-264.107-105.813c-22.496-9.178-48.599-14.505-75.947-14.505s-53.45 5.327-77.328 14.999l1.381-0.495-266.667 105.813-54.613-21.76c-19.070-7.736-32.273-26.113-32.273-47.573s13.204-39.838 31.931-47.45l0.343-0.123 353.28-139.947c12.995-5.466 28.1-8.643 43.947-8.643s30.952 3.176 44.713 8.927l-0.766-0.284 350.72 139.947c18.733 7.889 31.646 26.096 31.646 47.319 0 21.707-13.508 40.259-32.577 47.708l-0.348 0.12zM907.947 495.36l-113.493 44.8-222.72-89.173c-17.683-7.298-38.213-11.535-59.733-11.535s-42.051 4.237-60.803 11.923l1.070-0.388-222.72 89.173-112.213-44.8c-18.787-7.865-31.746-26.099-31.746-47.36s12.959-39.495 31.408-47.234l0.337-0.126 352-140.373c13.025-5.261 28.129-8.313 43.947-8.313s30.922 3.052 44.757 8.6l-0.81-0.287 350.72 140.373c18.449 8.013 31.118 26.076 31.118 47.097 0 21.508-13.262 39.918-32.054 47.5l-0.344 0.123z" />
<glyph unicode="&#xe91a;" glyph-name="abstract-27" d="M682.667 704l225.707-225.707c7.795-7.733 12.621-18.45 12.621-30.293s-4.826-22.56-12.618-30.291l-140.376-140.376-256 256zM115.627 417.707l225.707-225.707 170.667 170.667-256 256-140.373-140.373c-7.795-7.733-12.621-18.45-12.621-30.293s4.826-22.56 12.618-30.291l0.003-0.003zM768 277.333l-225.707-225.707c-7.733-7.795-18.45-12.621-30.293-12.621s-22.56 4.826-30.291 12.618l-140.376 140.376 256 256zM481.707 844.373l-225.707-225.707 170.667-170.667 256 256-140.373 140.373c-7.733 7.795-18.45 12.621-30.293 12.621s-22.56-4.826-30.291-12.618l-0.003-0.003z" />
<glyph unicode="&#xe91b;" glyph-name="abstract-28" d="M85.333 682.667c0 106.039 85.961 192 192 192s192-85.961 192-192c0-106.039-85.961-192-192-192v0c-0.127 0-0.277 0-0.427 0-105.803 0-191.573 85.77-191.573 191.573 0 0.15 0 0.3 0.001 0.45v-0.023zM746.667 490.667c106.039 0 192 85.961 192 192s-85.961 192-192 192c-106.039 0-192-85.961-192-192v0c0-0.127 0-0.277 0-0.427 0-105.803 85.77-191.573 191.573-191.573 0.15 0 0.3 0 0.45 0.001h-0.023zM85.333 213.333c0 106.039 85.961 192 192 192s192-85.961 192-192c0-106.039-85.961-192-192-192v0c-0.127 0-0.277 0-0.427 0-105.803 0-191.573 85.77-191.573 191.573 0 0.15 0 0.3 0.001 0.45v-0.023zM554.667 213.333c0 106.039 85.961 192 192 192s192-85.961 192-192c0-106.039-85.961-192-192-192v0c-0.127 0-0.277 0-0.427 0-105.803 0-191.573 85.77-191.573 191.573 0 0.15 0 0.3 0.001 0.45v-0.023z" />
<glyph unicode="&#xe91c;" glyph-name="abstract-29" d="M320 746.667c0-58.91-47.756-106.667-106.667-106.667s-106.667 47.756-106.667 106.667c0 58.91 47.756 106.667 106.667 106.667v0c58.91 0 106.667-47.756 106.667-106.667v0zM512 853.333c-58.91 0-106.667-47.756-106.667-106.667s47.756-106.667 106.667-106.667c58.91 0 106.667 47.756 106.667 106.667v0c0 58.91-47.756 106.667-106.667 106.667v0zM917.333 746.667c0-58.91-47.756-106.667-106.667-106.667s-106.667 47.756-106.667 106.667c0 58.91 47.756 106.667 106.667 106.667v0c58.91 0 106.667-47.756 106.667-106.667v0zM320 448c0-58.91-47.756-106.667-106.667-106.667s-106.667 47.756-106.667 106.667c0 58.91 47.756 106.667 106.667 106.667v0c58.91 0 106.667-47.756 106.667-106.667v0zM618.667 448c0-58.91-47.756-106.667-106.667-106.667s-106.667 47.756-106.667 106.667c0 58.91 47.756 106.667 106.667 106.667v0c58.91 0 106.667-47.756 106.667-106.667v0zM917.333 448c0-58.91-47.756-106.667-106.667-106.667s-106.667 47.756-106.667 106.667c0 58.91 47.756 106.667 106.667 106.667v0c58.91 0 106.667-47.756 106.667-106.667v0zM320 149.333c0-58.91-47.756-106.667-106.667-106.667s-106.667 47.756-106.667 106.667c0 58.91 47.756 106.667 106.667 106.667v0c58.91 0 106.667-47.756 106.667-106.667v0zM618.667 149.333c0-58.91-47.756-106.667-106.667-106.667s-106.667 47.756-106.667 106.667c0 58.91 47.756 106.667 106.667 106.667v0c58.91 0 106.667-47.756 106.667-106.667v0zM917.333 149.333c0-58.91-47.756-106.667-106.667-106.667s-106.667 47.756-106.667 106.667c0 58.91 47.756 106.667 106.667 106.667v0c58.91 0 106.667-47.756 106.667-106.667v0z" />
<glyph unicode="&#xe91d;" glyph-name="abstract-30" d="M256 789.333c0-47.128-38.205-85.333-85.333-85.333s-85.333 38.205-85.333 85.333c0 47.128 38.205 85.333 85.333 85.333v0c47.128 0 85.333-38.205 85.333-85.333v0zM512 533.333c-47.128 0-85.333-38.205-85.333-85.333s38.205-85.333 85.333-85.333c47.128 0 85.333 38.205 85.333 85.333v0c0 47.128-38.205 85.333-85.333 85.333v0zM256 448c0-47.128-38.205-85.333-85.333-85.333s-85.333 38.205-85.333 85.333c0 47.128 38.205 85.333 85.333 85.333v0c47.128 0 85.333-38.205 85.333-85.333v0zM938.667 448c0-47.128-38.205-85.333-85.333-85.333s-85.333 38.205-85.333 85.333c0 47.128 38.205 85.333 85.333 85.333v0c47.128 0 85.333-38.205 85.333-85.333v0zM597.333 789.333c0-47.128-38.205-85.333-85.333-85.333s-85.333 38.205-85.333 85.333c0 47.128 38.205 85.333 85.333 85.333v0c47.128 0 85.333-38.205 85.333-85.333v0zM938.667 789.333c0-47.128-38.205-85.333-85.333-85.333s-85.333 38.205-85.333 85.333c0 47.128 38.205 85.333 85.333 85.333v0c47.128 0 85.333-38.205 85.333-85.333v0zM597.333 106.667c0-47.128-38.205-85.333-85.333-85.333s-85.333 38.205-85.333 85.333c0 47.128 38.205 85.333 85.333 85.333v0c47.128 0 85.333-38.205 85.333-85.333v0zM256 106.667c0-47.128-38.205-85.333-85.333-85.333s-85.333 38.205-85.333 85.333c0 47.128 38.205 85.333 85.333 85.333v0c47.128 0 85.333-38.205 85.333-85.333v0zM938.667 106.667c0-47.128-38.205-85.333-85.333-85.333s-85.333 38.205-85.333 85.333c0 47.128 38.205 85.333 85.333 85.333v0c47.128 0 85.333-38.205 85.333-85.333v0z" />
<glyph unicode="&#xe91e;" glyph-name="abstract-31" d="M512 874.667c-235.487-0.205-426.307-191.152-426.307-426.667 0-87.723 26.473-169.262 71.867-237.065l-0.973 1.544 240.213 138.667v291.84l337.92-194.987-521.387-302.507c77.129-76.726 183.467-124.154 300.883-124.154 235.641 0 426.667 191.025 426.667 426.667s-191.025 426.667-426.667 426.667c-0.779 0-1.558-0.002-2.336-0.006l0.12 0.001z" />
<glyph unicode="&#xe91f;" glyph-name="abstract-32" d="M909.227 603.733c-63.947 160.009-217.64 270.996-397.255 270.996-235.641 0-426.667-191.025-426.667-426.667s191.025-426.667 426.667-426.667c117.812 0 224.472 47.749 301.682 124.951l-0.001-0.001c77.468 76.866 125.424 183.378 125.424 301.090 0 56.28-10.962 109.999-30.869 159.14l1.018-2.843zM512 206.507l-241.493 241.493 241.493 241.493 241.493-241.493z" />
<glyph unicode="&#xe920;" glyph-name="abstract-33" d="M938.667 448c-0.004-78.548-21.232-152.138-58.263-215.346l1.090 2.013-246.187 426.667h246.187c35.941-61.196 57.17-134.785 57.173-213.332v-0.001zM142.507 661.333l123.307-213.333 246.187 426.667c-157.090-0.004-294.35-84.903-368.403-211.32l-1.090-2.014zM142.507 234.667c75.143-128.43 212.403-213.329 369.492-213.333h0.001l123.307 213.333zM881.493 661.333h-492.8l123.307 213.333c157.090-0.004 294.35-84.903 368.403-211.32l1.090-2.014zM142.507 661.333c-35.937-61.196-57.162-134.786-57.162-213.333s21.225-152.137 58.253-215.347l-1.090 2.014h246.187zM758.187 448l-246.187-426.667c157.090 0.004 294.35 84.903 368.403 211.32l1.090 2.014z" />
<glyph unicode="&#xe921;" glyph-name="abstract-34" d="M512 874.667c78.548-0.004 152.138-21.232 215.346-58.263l-2.013 1.090-90.027-156.16h-246.613l-90.027 156.16c61.196 35.941 134.785 57.17 213.332 57.173h0.001zM938.667 448c-0.004-157.090-84.903-294.35-211.32-368.403l-2.014-1.090-90.027 156.16 122.88 213.333h180.48zM265.813 448l122.88-213.333-90.027-156.16c-128.43 75.143-213.329 212.403-213.333 369.492v0.001h180.48zM758.187 490.667h177.92c-13.187 125.214-78.782 232.894-174.125 302.080l-1.235 0.853-88.32-153.6-12.373-21.333 73.387-128zM597.333 213.333l-11.947 21.333h-147.627l-11.947-21.333-88.747-154.027c51.362-23.978 111.514-37.968 174.933-37.968s123.571 13.991 177.537 39.054l-2.604-1.085zM265.813 490.667h24.747l73.387 128-12.373 21.333-88.32 153.6c-96.578-70.040-162.173-177.72-175.201-301.078l-0.159-1.856z" />
<glyph unicode="&#xe922;" glyph-name="abstract-35" d="M93.867 531.2c38.525 186.462 194.676 326.937 385.992 341.248l1.421 0.085-103.253-102.4 97.28-112.213c-65.521-11.886-119.712-52.324-150.056-107.69l-0.557-1.11-130.987-117.76zM829.44 465.493l-124.16-104.96c-29.138-63.559-86.798-109.666-156.138-122.257l-1.302-0.196 98.133-111.787-103.68-104.96c192.915 14.207 349.273 154.742 387.361 338.57l0.479 2.764zM597.333 866.133c186.462-38.525 326.937-194.676 341.248-385.992l0.085-1.421-104.107 102.827-112.64-95.573c-13.102 68.075-57.088 123.728-116.493 152.617l-1.267 0.556-109.227 128zM529.067 129.707l-112.64 128c-60.141 30.684-103.218 87.412-114.599 154.907l-0.175 1.253-111.36-100.267-104.96 103.68c14.396-192.737 154.871-348.888 338.57-386.935l2.764-0.479z" />
<glyph unicode="&#xe923;" glyph-name="abstract-36" d="M512 201.813v246.187l213.333-123.307c42.649-25.051 70.827-70.696 70.827-122.921 0-78.469-63.611-142.080-142.080-142.080s-142.080 63.611-142.080 142.080c0 0.015 0 0.029 0 0.044v-0.002zM298.667 324.693l213.333 123.307-213.333 123.307c-20.484 12.070-45.129 19.2-71.44 19.2-78.704 0-142.507-63.802-142.507-142.507s63.802-142.507 142.507-142.507c26.31 0 50.955 7.13 72.108 19.563l-0.669-0.363zM512 694.187v-246.187l213.333 123.307c42.649 25.051 70.827 70.696 70.827 122.921 0 78.469-63.611 142.080-142.080 142.080s-142.080-63.611-142.080-142.080c0-0.015 0-0.029 0-0.044v0.002zM298.667 571.307c-42.649 25.051-70.827 70.696-70.827 122.921 0 78.469 63.611 142.080 142.080 142.080s142.080-63.611 142.080-142.080c0-0.015 0-0.029 0-0.044v0.002-246.187l-213.333 123.307zM725.333 324.693c20.269-11.805 44.613-18.773 70.585-18.773 78.469 0 142.080 63.611 142.080 142.080s-63.611 142.080-142.080 142.080c-25.972 0-50.316-6.968-71.264-19.138l0.68 0.364-213.333-123.307 213.333-123.307zM298.667 324.693c-42.649-25.051-70.827-70.696-70.827-122.921 0-78.469 63.611-142.080 142.080-142.080s142.080 63.611 142.080 142.080c0 0.015 0 0.029 0 0.044v-0.002 246.187l-213.333-123.307z" />
<glyph unicode="&#xe924;" glyph-name="abstract-37" d="M831.147 632.32v0c-0.523 117.424-95.834 212.412-213.331 212.412-38.928 0-75.422-10.427-106.839-28.64l1.024 0.548c-30.394 17.666-66.887 28.092-105.815 28.092-117.497 0-212.808-94.988-213.331-212.363v-0.050c-63.798-37.67-105.922-106.076-105.922-184.32s42.123-146.65 104.93-183.777l0.992-0.543c0.523-117.424 95.834-212.412 213.331-212.412 38.928 0 75.422 10.427 106.839 28.64l-1.024-0.548c30.394-17.666 66.887-28.092 105.815-28.092 117.497 0 212.808 94.988 213.331 212.363v0.050c63.798 37.67 105.922 106.076 105.922 184.32s-42.123 146.65-104.93 183.777l-0.992 0.543zM418.133 563.2c25.271 21.094 58.050 33.959 93.829 34.133h0.038c19.074-0.108 37.242-3.858 53.886-10.59l-0.979 0.35c49.177-18.959 85.17-62.038 93.751-114.343l0.116-0.857c1.421-7.070 2.343-15.301 2.556-23.708l0.004-0.186c-0.107-46.476-21.613-87.908-55.183-114.979l-0.283-0.221c-25.271-21.094-58.050-33.959-93.829-34.133h-0.038c-19.074 0.108-37.242 3.858-53.886 10.59l0.979-0.35c-58.193 20.833-99.078 75.501-99.078 139.718 0 47.024 21.923 88.927 56.105 116.047l0.306 0.234z" />
<glyph unicode="&#xe925;" glyph-name="abstract-38" d="M326.4 293.12l178.773 309.76 128-224.427h247.893l-226.987 395.52c-15.028 25.691-42.483 42.675-73.906 42.675-0.418 0-0.835-0.003-1.251-0.009l0.063 0.001h-197.547l-277.76-480c-6.953-12.297-11.051-27.003-11.051-42.667s4.097-30.37 11.279-43.106l-0.228 0.44 98.56-170.667h554.667c0.479-0.010 1.044-0.015 1.61-0.015 31.425 0 58.883 16.987 73.692 42.279l0.218 0.403 98.56 170.667z" />
<glyph unicode="&#xe926;" glyph-name="abstract-39" d="M372.48 704c-22.73 12.955-49.714 25.726-77.677 36.531l-4.243 1.442c42.072 45.59 87.858 86.504 137.294 122.732l2.653 1.854c24.453 5.053 52.596 7.999 81.409 8.106h0.084c29.333-0.084 57.925-3.031 85.579-8.576l-2.806 0.469c-85.573-44.102-158.881-98.345-222.206-162.471l-0.088-0.089zM512 601.6c78.232 74.272 174.48 130.34 281.476 160.954l4.817 1.179c-24.887 23.008-52.887 43.255-83.145 59.909l-2.189 1.104c-103.498-39.126-192.029-96.249-265.981-168.269l0.167 0.162c23.938-18.145 45.078-36.173 65.145-55.317l-0.292 0.277zM298.667 106.667q0-13.653 0-26.88c-34.867 19.754-64.881 42.836-91.271 69.51l-0.036 0.036c-11.388 42.529-37.637 77.662-72.714 100.287l-0.672 0.406c-16.559 30.737-29.941 66.358-38.303 103.871l-0.523 2.795c116.878-25.117 203.255-127.447 203.52-249.998v-0.029zM453.547 539.307c-78.216 74.878-177.255 128.609-287.565 151.648l-3.849 0.672c-15.761-22.847-30.062-48.951-41.603-76.498l-1.064-2.862c111.917-17.013 209.583-68.424 284.164-142.937l-0.004 0.004c16.442 26.573 32.898 49.41 50.771 71.034l-0.851-1.060zM93.44 529.92c-5.076-24.592-8.023-52.887-8.107-81.855v-2.625c100.707-13.082 186.37-68.393 239.875-147.284l0.765-1.196c10.957 36.729 22.848 67.571 36.78 97.266l-1.793-4.253c-67.198 75.667-160.402 126.94-265.481 139.744l-2.039 0.202zM469.333 106.667c0.412 255.786 188.328 467.559 433.625 505.239l2.855 0.361c-12.612 30.581-26.916 56.828-43.638 81.291l0.971-1.504c-275.186-57.006-479.078-297.376-479.147-585.379v-0.007c0-22.613 0-44.8 3.84-66.987 25.811-7.976 56.002-13.87 87.116-16.528l1.631-0.112c-4.362 24.979-6.989 53.896-7.252 83.377l-0.002 0.25zM816.64 149.333c11.388 42.529 37.637 77.662 72.714 100.287l0.672 0.406c16.559 30.737 29.941 66.358 38.303 103.871l0.523 2.795c-116.878-25.117-203.255-127.447-203.52-249.998v-0.029q0-13.653 0-26.88c34.867 19.754 64.881 42.836 91.271 69.51l0.036 0.036zM640 106.667c0.162 173.343 129.512 316.425 296.952 338.165l1.714 0.182v2.987c-0.083 29.033-3.031 57.328-8.574 84.681l0.467-2.761c-212.667-26.348-375.656-205.943-375.656-423.606 0-28.856 2.865-57.043 8.325-84.292l-0.456 2.725c31.72 3.438 60.635 9.899 88.245 19.198l-2.912-0.851c-4.394 18.772-7.305 40.605-8.090 62.979l-0.017 0.594z" />
<glyph unicode="&#xe927;" glyph-name="abstract-40" d="M677.973 320c2.971 11.785 4.681 25.317 4.693 39.246v0.008c0.003 0.39 0.005 0.85 0.005 1.311 0 31.002-8.566 60.003-23.46 84.765l0.415-0.743c-30.029 51.324-84.857 85.267-147.617 85.333h-0.009c-9.839-0.464-18.954-1.379-27.921-2.744l1.468 0.184c-170.667-21.76-287.147-172.8-374.613-319.573l353.28 613.973c9.666 16.686 27.436 27.73 47.787 27.73s38.121-11.044 47.645-27.466l0.141-0.264 12.8-22.613c82.347-146.347 152.747-319.147 105.387-479.147zM930.987 177.067l-358.4 622.080c82.347-146.347 152.747-319.147 105.387-479.147-0.062-0.83-0.097-1.797-0.097-2.773s0.035-1.944 0.104-2.902l-0.007 0.128c-3.827-14.294-8.929-26.774-15.371-38.409l0.438 0.863c-29.822-52.338-85.248-87.055-148.782-87.055-0.794 0-1.586 0.005-2.377 0.016l0.12-0.001c-0.191-0.001-0.418-0.001-0.644-0.001-39.221 0-75.289 13.5-103.81 36.107l0.347-0.266c119.893-115.2 308.48-130.133 475.307-130.133 0.073 0 0.159-0.001 0.245-0.001 30.398 0 55.040 24.642 55.040 55.040 0 10.22-2.785 19.789-7.638 27.989l0.14-0.255zM442.027 95.573h-301.227c-0.073 0-0.159-0.001-0.245-0.001-30.398 0-55.040 24.642-55.040 55.040 0 10.22 2.785 19.789 7.638 27.989l-0.14-0.255 17.92 30.72c87.467 146.773 203.093 298.667 374.613 319.573-113.92-16.213-170.667-132.693-152.32-237.227 6.613-42.366 20.218-80.432 39.694-114.727l-0.868 1.66c18.985-32.19 42.269-59.551 69.487-82.376l0.487-0.397z" />
<glyph unicode="&#xe928;" glyph-name="abstract-41" d="M929.28 714.667v0l-118.613 117.333c-11.967 12.393-28.73 20.088-47.29 20.088-7.033 0-13.809-1.105-20.162-3.151l0.465 0.129c-118.613-42.667-437.333-34.56-499.627 16.64v0l-116.053-119.040c-12.325-11.958-19.973-28.675-19.973-47.178 0-7.39 1.22-14.495 3.469-21.124l-0.136 0.463c17.721-63.037 27.908-135.429 27.908-210.2 0-5.903-0.063-11.791-0.19-17.663l0.015 0.876c0-162.133-29.867-253.867-42.667-270.507v0l116.907-117.333c11.967-12.393 28.73-20.088 47.29-20.088 7.033 0 13.809 1.105 20.162 3.151l-0.465-0.129c118.613 40.533 437.333 34.56 499.627-16.64v0l116.053 119.040c12.393 11.967 20.088 28.73 20.088 47.29 0 7.033-1.105 13.809-3.151 20.162l0.129-0.465c-40.96 117.333-34.987 436.053 16.213 498.347zM685.227 274.773c-51.854 7.638-111.711 11.999-172.587 11.999s-120.733-4.362-179.276-12.789l6.689 0.79c7.372 49.682 11.582 107.026 11.582 165.353 0 4.269-0.023 8.533-0.068 12.791l0.005-0.651c0.016 2.39 0.026 5.216 0.026 8.044 0 56.731-3.73 112.591-10.959 167.347l0.694-6.431c51.127-7.875 110.107-12.373 170.137-12.373 0.186 0 0.372 0 0.558 0h-0.029c0.412-0.001 0.9-0.001 1.387-0.001 60.627 0 120.203 4.498 178.413 13.18l-6.573-0.805c-7.74-52.048-12.16-112.121-12.16-173.227s4.42-121.178 12.959-179.917l-0.798 6.69z" />
<glyph unicode="&#xe929;" glyph-name="abstract-42" d="M938.667 618.667h-597.333l170.667 170.667h298.667c0.070 0 0.153 0 0.236 0 28.166 0 52.56-16.149 64.428-39.694l0.189-0.414zM150.613 146.773c12.057-23.958 36.451-40.107 64.617-40.107 0.083 0 0.166 0 0.249 0h298.654l170.667 170.667h-599.467zM813.227 86.613c23.41 11.77 39.357 35.298 40.105 62.622l0.002 0.098v298.667l-170.667 170.667v-597.333zM210.773 809.387c-23.958-12.057-40.107-36.451-40.107-64.617 0-0.083 0-0.166 0-0.249v0.013-298.667l170.667-170.667v599.467zM938.667 618.667l-85.333-170.667-170.667 170.667zM341.333 277.333l-170.667 170.667-85.333-170.667zM682.667 277.333l-170.667-170.667 170.667-85.333zM341.333 618.667l170.667 170.667-170.667 85.333z" />
<glyph unicode="&#xe92a;" glyph-name="abstract-43" d="M341.333 874.667v-597.333h-256v314.027c0 0.027 0 0.058 0 0.090 0 18.122 7.336 34.531 19.201 46.418l-0.001-0.001zM682.667 618.667v-597.333l236.8 236.8c11.864 11.886 19.2 28.295 19.2 46.417 0 0.032 0 0.063 0 0.095v-0.005 314.027zM938.667 618.667h-597.333v256h314.027c0.027 0 0.058 0 0.090 0 18.122 0 34.531-7.336 46.418-19.201l-0.001 0.001zM85.333 277.333l236.8-236.8c11.886-11.864 28.295-19.2 46.417-19.2 0.032 0 0.063 0 0.095 0h314.022v256z" />
<glyph unicode="&#xe92b;" glyph-name="abstract-44" d="M891.733 609.28l-806.4-161.28v208.213c0.066 28.151 20.022 51.621 46.555 57.108l0.378 0.065 747.52 149.333c3.078 0.693 6.613 1.090 10.241 1.090 26.863 0 48.64-21.777 48.64-48.64 0-0.083 0-0.167-0.001-0.25v0.013-148.48c-0.066-28.151-20.022-51.621-46.555-57.108l-0.378-0.065zM938.667 239.787v208.213l-806.4-161.28c-26.911-5.552-46.867-29.023-46.933-57.166v-148.487c0-0.070-0.001-0.154-0.001-0.237 0-26.863 21.777-48.64 48.64-48.64 3.628 0 7.163 0.397 10.564 1.15l-0.323-0.060 747.52 149.333c26.911 5.552 46.867 29.023 46.933 57.166v0.007z" />
<glyph unicode="&#xe92c;" glyph-name="abstract-45" d="M341.333 21.333c-23.564 0-42.667 19.103-42.667 42.667v0 512c0 23.564 19.103 42.667 42.667 42.667s42.667-19.103 42.667-42.667v0-512c0-23.564-19.103-42.667-42.667-42.667v0zM213.333 362.667v341.333c0 23.564-19.103 42.667-42.667 42.667s-42.667-19.103-42.667-42.667v0-341.333c0-23.564 19.103-42.667 42.667-42.667s42.667 19.103 42.667 42.667v0zM512 106.667c-23.564 0-42.667 19.103-42.667 42.667v0 682.667c0 23.564 19.103 42.667 42.667 42.667s42.667-19.103 42.667-42.667v0-682.667c0-23.564-19.103-42.667-42.667-42.667v0zM682.667 234.667c-23.564 0-42.667 19.103-42.667 42.667v0 469.333c0 23.564 19.103 42.667 42.667 42.667s42.667-19.103 42.667-42.667v0-469.333c0-23.564-19.103-42.667-42.667-42.667v0zM853.333 149.333c-23.564 0-42.667 19.103-42.667 42.667v0 341.333c0 23.564 19.103 42.667 42.667 42.667s42.667-19.103 42.667-42.667v0-341.333c0-23.564-19.103-42.667-42.667-42.667v0z" />
<glyph unicode="&#xe92d;" glyph-name="abstract-46" d="M512 21.333l354.56 354.56c5.547-160.427-102.827-300.373-354.56-354.56zM822.613 545.28c-24.68 49.572-53.095 92.304-86.076 131.027l0.743-0.894-225.28-227.413v-213.333zM389.973 783.36c-38.395-33.109-72.894-68.42-104.199-106.459l-1.188-1.487 227.413-227.413v213.333zM512 874.667v-213.333l122.027 122.027c-36.236 31.739-76.066 61.803-118.009 88.877l-4.018 2.429zM157.44 375.893l354.56-354.56v213.333l-310.613 310.613c-25.021-49.338-40.917-107.173-43.908-168.398l-0.038-0.988z" />
<glyph unicode="&#xe92e;" glyph-name="abstract-47" d="M228.267 430.933c13.391 22.798 37.79 37.861 65.707 37.861s52.316-15.063 65.513-37.505l0.194-0.356 64.427-110.933 64-111.36c6.551-10.995 10.423-24.245 10.423-38.4 0-41.944-34.002-75.947-75.947-75.947-0.064 0-0.129 0-0.193 0h-255.99c-41.916 0.037-75.882 34.025-75.882 75.947 0 13.981 3.778 27.080 10.369 38.332l-0.194-0.358 63.573 111.787zM924.16 208.213l-160.427 277.76-160 277.76c-13.5 22.776-37.955 37.806-65.92 37.806s-52.42-15.030-65.726-37.453l-0.194-0.353-147.627-256c31.313-8.129 56.933-28.181 72.234-54.899l0.299-0.567 64-111.36 64.427-111.36c10.072-16.992 16.024-37.454 16.024-59.307s-5.952-42.315-16.324-59.854l0.299 0.547c-3.992-6.252-8.209-11.691-12.868-16.714l0.068 0.074h346.027c41.916 0.037 75.882 34.025 75.882 75.947 0 13.981-3.778 27.080-10.369 38.332l0.194-0.358z" />
<glyph unicode="&#xe92f;" glyph-name="abstract-48" d="M512 874.667c-235.641 0-426.667-191.025-426.667-426.667s191.025-426.667 426.667-426.667c235.641 0 426.667 191.025 426.667 426.667v0c0 235.641-191.025 426.667-426.667 426.667v0zM512 590.507c-17.673 0-32 14.327-32 32s14.327 32 32 32v0c114.050 0 206.507-92.456 206.507-206.507s-92.456-206.507-206.507-206.507v0c-17.673 0-32 14.327-32 32s14.327 32 32 32v0c78.704 0 142.507 63.802 142.507 142.507s-63.802 142.507-142.507 142.507v0zM512 118.187c-182.053 0.243-329.571 147.76-329.813 329.79v0.023c0 17.673 14.327 32 32 32s32-14.327 32-32v0c0-146.805 119.009-265.813 265.813-265.813s265.813 119.009 265.813 265.813c0 146.805-119.009 265.813-265.813 265.813v0c-17.673 0-32 14.327-32 32s14.327 32 32 32v0c182.151 0 329.813-147.662 329.813-329.813s-147.662-329.813-329.813-329.813v0z" />
<glyph unicode="&#xe930;" glyph-name="abstract-49" d="M345.6 416h123.733v-163.413c-0.241-21.73-17.913-39.253-39.678-39.253-0.001 0-0.002 0-0.002 0h-110.507c-129.184 0.243-233.814 105.022-233.814 234.24 0 0.15 0 0.3 0 0.451v-0.023c0 0.127 0 0.277 0 0.427 0 129.217 104.63 233.997 233.79 234.24h111.383c0.001 0 0.001 0 0.002 0 21.765 0 39.437-17.523 39.678-39.231v-163.436h-124.587c-17.673 0-32-14.327-32-32s14.327-32 32-32v0zM704.853 682.667h-110.933c-21.679 0-39.253-17.574-39.253-39.253v0-163.413h128c17.673 0 32-14.327 32-32s-14.327-32-32-32v0h-128v-163.413c0-21.679 17.574-39.253 39.253-39.253h110.933c129.184 0.243 233.814 105.022 233.814 234.24 0 0.15 0 0.3 0 0.451v-0.023c0 0.127 0 0.277 0 0.427 0 129.217-104.63 233.997-233.79 234.24h-0.023zM469.333 480v-64h85.333v64z" />
<glyph unicode="&#xe931;" glyph-name="abstract" d="M441.6 43.093l-291.84 291.84c-15.088 14.997-24.427 35.764-24.427 58.712 0 11.616 2.393 22.674 6.712 32.706l-0.206-0.538 17.493 42.667c13.253 30.271 42.744 51.138 77.165 51.626l0.062 0.001h420.693l-185.6 183.893c-13.45 13.502-21.766 32.126-21.766 52.693s8.316 39.192 21.768 52.696l-0.002-0.002 15.36 14.933c13.405 13.658 32.061 22.124 52.693 22.124s39.288-8.465 52.682-22.112l0.011-0.011 291.84-290.987c15.088-14.997 24.427-35.764 24.427-58.712 0-11.616-2.393-22.674-6.712-32.706l0.206 0.538-17.493-42.667c-13.373-30.097-42.834-50.79-77.174-51.2h-420.746l185.6-185.6c13.475-13.57 21.803-32.266 21.803-52.907s-8.328-39.337-21.807-52.911l0.004 0.004-15.36-14.933c-13.457-13.197-31.91-21.342-52.265-21.342-20.78 0-39.578 8.489-53.114 22.188l-0.007 0.007z" />
<glyph unicode="&#xe932;" glyph-name="add-files" d="M981.333 555.947h-201.813c-77.668 2.813-139.562 66.454-139.562 144.551 0 1.232 0.015 2.46 0.046 3.684l-0.004-0.181c0.11 0.641 0.173 1.38 0.173 2.133s-0.063 1.492-0.184 2.211l0.011-0.078v205.227zM981.333 490.667h-201.813c-112.698 3.534-202.712 95.74-202.712 208.97 0 1.534 0.017 3.064 0.049 4.591l-0.004-0.227v210.347h-208.64c-131.855-1.675-238.099-108.954-238.099-241.048 0-1.057 0.007-2.111 0.020-3.165l-0.002 0.16v-291.413c24.583 9.696 53.056 15.317 82.842 15.317 99.777 0 184.823-63.074 217.44-151.525l0.518-1.606c9.641-25.286 15.224-54.529 15.224-85.077 0-34.615-7.169-67.555-20.103-97.418l0.612 1.588h317.44c131.484 2.151 237.246 109.242 237.246 241.036 0 1.061-0.007 2.12-0.021 3.177l0.002-0.16zM213.333 328.533c-95.906 0-173.653-77.747-173.653-173.653s77.747-173.653 173.653-173.653v0c95.906 0 173.653 77.747 173.653 173.653s-77.747 173.653-173.653 173.653v0zM276.907 122.027h-34.56v-32.853c0.002-0.128 0.003-0.279 0.003-0.43 0-17.202-13.945-31.147-31.147-31.147-0.151 0-0.302 0.001-0.452 0.003h0.023c-0.001 0-0.002 0-0.003 0-17.673 0-32 14.327-32 32 0 0.15 0.001 0.3 0.003 0.449v-0.023 32.427h-32c-16.464 1.94-29.115 15.813-29.115 32.64s12.651 30.7 28.961 32.625l0.155 0.015h32v32c-0.136 1.107-0.213 2.389-0.213 3.689 0 17.673 14.327 32 32 32s32-14.327 32-32c0-1.3-0.078-2.582-0.228-3.841l0.015 0.152v-32.427h32.427c16.464-1.94 29.115-15.813 29.115-32.64s-12.651-30.7-28.961-32.625l-0.155-0.015z" />
<glyph unicode="&#xe933;" glyph-name="add-folder" d="M713.387 698.88h-125.867c-0.002 0-0.005 0-0.008 0-46.67 0-86.661 28.6-103.401 69.23l-0.271 0.743-14.507 35.84c-16.715 41.261-56.417 69.858-102.812 69.973h-85.348c-0.127 0-0.277 0-0.427 0-107.924 0-195.413-87.49-195.413-195.413 0 0 0 0 0 0v0-434.773c1.207-123.498 101.601-223.147 225.27-223.147 0.004 0 0.007 0 0.011 0h402.773c0.003 0 0.007 0 0.010 0 123.669 0 224.063 99.649 225.269 223.032l0.001 0.114v229.12c0 0.127 0 0.277 0 0.427 0 124.183-100.67 224.853-224.853 224.853-0.15 0-0.3 0-0.45 0h0.023zM609.28 357.547h-66.133v-65.28c0.008-0.258 0.012-0.561 0.012-0.865 0-16.435-13.088-29.813-29.409-30.281l-0.043-0.001c-0.004 0-0.008 0-0.012 0-16.43 0-29.806 13.081-30.28 29.396l-0.001 0.044v67.84h-68.267c-16.731 0-30.293 13.563-30.293 30.293s13.563 30.293 30.293 30.293v0h65.707v65.707c-0.008 0.258-0.012 0.561-0.012 0.865 0 16.435 13.088 29.813 29.409 30.281l0.043 0.001c0.51 0.032 1.106 0.050 1.707 0.050 16.259 0 29.44-13.181 29.44-29.44 0-0.017 0-0.035 0-0.052v0.003-67.84h68.267c16.731 0 30.293-13.563 30.293-30.293s-13.563-30.293-30.293-30.293v0z" />
<glyph unicode="&#xe934;" glyph-name="add-item" d="M386.987 277.333h-173.653c-70.692 0-128 57.308-128 128v0 341.333c0 70.692 57.308 128 128 128v0h234.24c70.692 0 128-57.308 128-128v0-64.427c-104.411-1.204-188.589-86.126-188.589-190.708 0-0.304 0.001-0.608 0.002-0.912v0.047zM938.667 490.667v-341.333c0-70.692-57.308-128-128-128v0h-232.96c-70.692 0-128 57.308-128 128v0 341.333c0 70.692 57.308 128 128 128v0h232.96c70.692 0 128-57.308 128-128v0zM805.547 320c0 17.673-14.327 32-32 32v0h-37.547v37.547c0 17.673-14.327 32-32 32s-32-14.327-32-32v0-37.547h-37.547c-17.673 0-32-14.327-32-32s14.327-32 32-32v0h37.547v-37.547c0-17.673 14.327-32 32-32s32 14.327 32 32v0 37.547h37.547c17.673 0 32 14.327 32 32v0z" />
<glyph unicode="&#xe935;" glyph-name="add-notepad" d="M352.853 804.693c-4.275 0.305-9.264 0.479-14.293 0.479s-10.018-0.174-14.96-0.516l0.667 0.037v35.84c0 17.673 14.327 32 32 32s32-14.327 32-32v0-35.84zM699.733 804.693v35.84c0 17.673-14.327 32-32 32s-32-14.327-32-32v0-35.84h35.413c10.14-0.063 20.044-0.836 29.731-2.273l-1.144 0.139zM903.68 571.733v-315.307c0.009-0.761 0.014-1.66 0.014-2.56 0-128.425-104.109-232.533-232.533-232.533-0.005 0-0.010 0-0.015 0h-318.292c-128.477 0.243-232.533 104.449-232.533 232.96 0 0 0 0 0 0v0 317.44c0 0.017 0 0.037 0 0.057 0 118.348 88.412 216.046 202.792 230.649l1.155 0.12v-40.107c0-17.673 14.327-32 32-32s32 14.327 32 32v0 42.667h247.467v-42.667c0-17.673 14.327-32 32-32s32 14.327 32 32v0 40.107c115.498-14.523 203.947-112.128 203.947-230.392 0-0.153 0-0.306 0-0.458v0.024zM640 411.307c0.002 0.128 0.003 0.279 0.003 0.43 0 16.582-13.322 30.052-29.847 30.29h-68.289v67.84c0 0.008 0 0.018 0 0.027 0 16.495-13.372 29.867-29.867 29.867-0.45 0-0.898-0.010-1.343-0.030l0.063 0.002c-16.412-0.699-29.453-14.173-29.453-30.694 0-0.309 0.005-0.617 0.014-0.925l-0.001 0.045v-65.28h-66.133c-16.731 0-30.293-13.563-30.293-30.293s13.563-30.293 30.293-30.293v0h68.267v-67.84c0.476-16.359 13.851-29.44 30.281-29.44 0.004 0 0.008 0 0.013 0h-0.001c16.365 0.469 29.452 13.847 29.452 30.282 0 0.304-0.004 0.607-0.013 0.909l0.001-0.044v65.707h65.707c0.258-0.008 0.561-0.012 0.865-0.012 16.435 0 29.813 13.088 30.281 29.409l0.001 0.043z" />
<glyph unicode="&#xe936;" glyph-name="address-book" d="M666.453 21.333h-436.907c-67.865 0-122.88 55.015-122.88 122.88v0 607.573c0 67.865 55.015 122.88 122.88 122.88v0h436.907c67.865 0 122.88-55.015 122.88-122.88v0-607.573c0-67.865-55.015-122.88-122.88-122.88v0zM448 661.333c-47.128 0-85.333-38.205-85.333-85.333s38.205-85.333 85.333-85.333c47.128 0 85.333 38.205 85.333 85.333v0c0 47.128-38.205 85.333-85.333 85.333v0zM587.52 277.333c0.768-0.049 1.666-0.077 2.57-0.077 23.564 0 42.667 19.103 42.667 42.667 0 5.233-0.942 10.246-2.666 14.879l0.096-0.295c-30.862 67.529-97.822 113.608-175.544 113.608-2.336 0-4.662-0.042-6.978-0.124l0.335 0.009c-1.578 0.046-3.436 0.073-5.299 0.073-77.616 0-144.524-45.852-175.112-111.946l-0.496-1.193c-11.093-27.733 11.52-57.6 65.28-57.6zM874.667 490.667h-42.667v-170.667h42.667c23.564 0 42.667 19.103 42.667 42.667v0 85.333c0 23.564-19.103 42.667-42.667 42.667v0zM874.667 746.667h-42.667v-170.667h42.667c23.564 0 42.667 19.103 42.667 42.667v0 85.333c0 23.564-19.103 42.667-42.667 42.667v0z" />
<glyph unicode="&#xe937;" glyph-name="airplane-square" d="M938.667 622.507c-2.163 139.724-115.937 252.16-255.971 252.16-0.010 0-0.020 0-0.031 0h-346.452c-139.165-2.872-250.88-116.364-250.88-255.949 0-0.018 0-0.036 0-0.054v0.003-344.747c1.925-139.909 115.793-252.587 255.977-252.587 0.008 0 0.016 0 0.024 0h346.879c140.095 1.687 253.013 115.648 253.013 255.983 0 0.006 0 0.012 0 0.018v-0.001zM802.133 395.947c-0.2-15.87-13.112-28.659-29.011-28.659-4.003 0-7.817 0.811-11.286 2.277l0.19-0.071-155.733 67.84c-2.266 0.989-4.906 1.565-7.681 1.565-10.79 0-19.546-8.707-19.626-19.478v-107.101c0-0.037 0-0.081 0-0.125 0-6.133 2.813-11.608 7.219-15.207l0.035-0.028 69.12-56.32c6.133-5.155 10.056-12.768 10.239-21.302l0.001-0.031v-64c-1.070-14.436-13.046-25.743-27.662-25.743-5.574 0-10.765 1.645-15.112 4.475l0.107-0.065-93.44 75.947c-4.54 3.773-10.429 6.064-16.853 6.064s-12.314-2.29-16.897-6.098l0.043 0.035-94.72-75.947c-4.657-3.664-10.606-5.877-17.072-5.877-15.133 0-27.435 12.12-27.728 27.183v63.6c-0.002 0.117-0.003 0.256-0.003 0.394 0 8.528 3.791 16.171 9.78 21.335l0.036 0.031 75.093 61.013c4.441 3.627 7.254 9.103 7.254 15.235 0 0.044 0 0.088 0 0.131v-0.007 104.107c-0.080 10.779-8.836 19.485-19.626 19.485-2.775 0-5.415-0.576-7.807-1.614l0.127 0.049-159.573-69.547c-3.279-1.395-7.092-2.205-11.095-2.205-15.899 0-28.811 12.788-29.011 28.64v67.432c-0.005 0.201-0.008 0.438-0.008 0.675 0 11.861 7.118 22.060 17.315 26.559l0.186 0.073 197.973 85.333c6.839 3.038 11.523 9.771 11.523 17.598 0 0.113-0.001 0.226-0.003 0.339v-0.017 103.68c0 0.029 0 0.063 0 0.097 0 14.597 5.864 27.825 15.366 37.456l-0.006-0.006 19.627 20.053c7.753 7.924 18.556 12.837 30.507 12.837s22.753-4.913 30.499-12.83l0.008-0.008 19.627-20.053c9.496-9.625 15.36-22.852 15.36-37.45 0-0.034 0-0.068 0-0.102v0.005-105.387c0-0.014 0-0.030 0-0.046 0-7.901 4.669-14.712 11.399-17.824l0.122-0.050 194.133-85.333c10.326-4.549 17.42-14.664 17.493-26.444v-0.009z" />
<glyph unicode="&#xe938;" glyph-name="airplane" d="M876.373 503.467l-258.987 112.64c-9.281 4.163-15.656 13.268-15.787 23.877v140.817c0.011 0.459 0.017 1 0.017 1.543 0 19.379-7.83 36.93-20.5 49.66l0.003-0.003-26.453 25.6c-10.308 10.515-24.66 17.032-40.533 17.032s-30.225-6.518-40.524-17.023l-25.609-25.609c-13.167-12.806-21.337-30.693-21.337-50.487 0-0.251 0.001-0.501 0.004-0.751v0.038-138.24c-0.075-10.42-6.066-19.423-14.779-23.823l-0.154-0.070-264.107-115.2c-13.432-6.048-22.614-19.316-22.614-34.729 0-0.091 0-0.181 0.001-0.272v0.014-90.027c-0.001-0.077-0.001-0.168-0.001-0.259 0-20.972 17.001-37.973 37.973-37.973 5.56 0 10.841 1.195 15.6 3.342l-0.239-0.097 213.333 92.587c3.135 1.444 6.803 2.286 10.667 2.286 14.374 0 26.027-11.653 26.027-26.027 0-0.054 0-0.108 0-0.161v0.008-138.667c0.001-0.097 0.002-0.211 0.002-0.325 0-8.158-3.816-15.425-9.761-20.113l-0.054-0.041-100.693-81.493c-8.271-6.858-13.534-17.096-13.653-28.566v-85.353c0.028-20.244 16.445-36.645 36.693-36.645 8.952 0 17.155 3.206 23.525 8.532l-0.058-0.047 123.733 101.12c6.114 5.003 14.010 8.035 22.613 8.035s16.5-3.032 22.677-8.085l-0.064 0.051 124.16-101.12c6.241-5.068 14.283-8.137 23.042-8.137 20.126 0 36.467 16.203 36.691 36.276v85.354c-0.119 11.491-5.382 21.728-13.591 28.537l-0.062 0.050-92.16 75.52c-5.989 4.565-9.815 11.703-9.815 19.735 0 0.112 0.001 0.224 0.002 0.336v-0.017 142.507c0.040 14.579 11.868 26.382 26.453 26.382 3.697 0 7.217-0.758 10.412-2.128l-0.172 0.066 207.36-90.453c4.52-2.051 9.801-3.246 15.361-3.246 20.972 0 37.973 17.001 37.973 37.973 0 0.091 0 0.182-0.001 0.273v-0.014 90.027c0.001 0.077 0.001 0.167 0.001 0.258 0 15.413-9.182 28.681-22.375 34.632l-0.239 0.097z" />
<glyph unicode="&#xe939;" glyph-name="airpod" d="M737.28 560.213h180.053v-354.56c0-0.127 0-0.277 0-0.427 0-101.561-82.332-183.893-183.893-183.893-0.15 0-0.3 0-0.45 0.001h-442.004c-0.127 0-0.277 0-0.427 0-101.561 0-183.893 82.332-183.893 183.893 0 0.15 0 0.3 0.001 0.45v-0.023 354.56h180.053c14.257-40.798 52.411-69.541 97.279-69.547h256.001c44.869 0.005 83.023 28.749 97.060 68.826l0.22 0.721zM733.013 874.667h-442.027c-0.127 0-0.277 0-0.427 0-101.561 0-183.893-82.332-183.893-183.893 0-0.15 0-0.3 0.001-0.45v0.023-66.133h180.053c13.69 41.51 52.008 70.99 97.249 71.253h256.031c45.445-0.070 83.972-29.609 97.499-70.527l0.208-0.726h179.627v66.133c0 0.127 0 0.277 0 0.427 0 101.561-82.332 183.893-183.893 183.893-0.15 0-0.3 0-0.45-0.001h0.023z" />
<glyph unicode="&#xe93a;" glyph-name="android" d="M725.333 487.68v-250.027c-0.242-48.83-39.882-88.32-88.746-88.32 0 0-0.001 0-0.001 0h-249.173c0 0-0.001 0-0.001 0-48.863 0-88.503 39.49-88.746 88.297v250.050c0.242 48.83 39.882 88.32 88.746 88.32 0 0 0.001 0 0.001 0h249.173c0 0 0.001 0 0.001 0 48.863 0 88.503-39.49 88.746-88.297v-0.023zM213.333 291.84v170.667c0 23.564-19.103 42.667-42.667 42.667s-42.667-19.103-42.667-42.667v0-170.667c0-23.564 19.103-42.667 42.667-42.667s42.667 19.103 42.667 42.667v0zM387.413 149.333v0-85.333c0-23.564 19.103-42.667 42.667-42.667s42.667 19.103 42.667 42.667v0 85.333zM636.587 149.333h-81.92v-85.333c0-23.564 19.103-42.667 42.667-42.667s42.667 19.103 42.667 42.667v0 85.333zM896 291.84v170.667c0 23.564-19.103 42.667-42.667 42.667s-42.667-19.103-42.667-42.667v0-170.667c0-23.564 19.103-42.667 42.667-42.667s42.667 19.103 42.667 42.667v0zM590.080 636.16c0.409-0.008 0.891-0.012 1.375-0.012 41.305 0 75.036 32.427 77.124 73.213l0.008 0.186c-1.427 91.511-75.944 165.147-167.661 165.147-1.057 0-2.112-0.010-3.164-0.029l0.158 0.002c-0.894 0.017-1.949 0.027-3.006 0.027-91.717 0-166.234-73.636-167.659-165.013l-0.002-0.134c2.096-40.972 35.827-73.399 77.132-73.399 0.483 0 0.966 0.004 1.447 0.013l-0.072-0.001z" />
<glyph unicode="&#xe93b;" glyph-name="angular" d="M507.733 614.4l85.333-178.347h-166.4zM876.8 631.040l-32-364.8c-4.585-47.804-31.756-88.406-70.582-111.418l-0.672-0.368-193.28-113.493c-20.929-12.291-46.097-19.55-72.96-19.55s-52.031 7.259-73.649 19.922l0.689-0.373-193.707 113.493c-38.939 23.694-65.61 64.22-69.931 111.216l-0.042 0.571-32.853 364.8c-0.386 3.955-0.607 8.55-0.607 13.196 0 61.073 38.077 113.253 91.786 134.096l0.981 0.335 225.707 85.333c15.34 5.885 33.085 9.293 51.627 9.293s36.286-3.408 52.643-9.633l-1.017 0.34 225.707-85.333c54.695-21.602 92.686-74.004 92.686-135.28 0-4.346-0.191-8.648-0.565-12.897l0.039 0.55zM735.573 283.733l-199.253 420.267c-4.481 10.894-15.012 18.424-27.301 18.424-0.753 0-1.499-0.028-2.237-0.084l0.098 0.006c-0.001 0-0.002 0-0.003 0-12.728 0-23.673-7.635-28.505-18.574l-0.079-0.199-130.987-287.147-60.587-133.12c-1.847-3.921-2.925-8.517-2.925-13.365 0-13.019 7.775-24.223 18.935-29.22l0.203-0.081c3.711-1.886 8.091-2.991 12.73-2.991 0.175 0 0.349 0.002 0.523 0.005h-0.026c12.83 0.052 23.873 7.646 28.931 18.575l0.082 0.198 52.48 115.2h225.28l55.040-115.627c4.638-12.32 16.325-20.926 30.023-20.926 17.673 0 32 14.327 32 32 0 5.986-1.643 11.587-4.504 16.379l0.081-0.146z" />
<glyph unicode="&#xe93c;" glyph-name="apple" d="M652.8 742.4c-23.12-29.663-54.804-51.675-91.317-62.4l-1.27-0.32c-2.696-0.845-5.796-1.332-9.010-1.332-17.202 0-31.147 13.945-31.147 31.147 0 0.619 0.018 1.233 0.054 1.842l-0.004-0.084c4.665 38.392 20.004 72.532 42.923 100.158l-0.256-0.318c23.14 27.437 52.919 48.562 86.892 60.983l1.428 0.457c3.414 1.377 7.373 2.176 11.518 2.176 17.437 0 31.573-14.136 31.573-31.573 0-1.823-0.155-3.611-0.451-5.349l0.026 0.187c-6.246-36.698-21.327-69.093-42.978-95.973l0.311 0.399zM801.28 529.067c7.988 7.763 12.945 18.608 12.945 30.612 0 13.974-6.718 26.38-17.101 34.162l-0.111 0.079c-28.391 23.46-64.152 38.952-103.349 42.61l-0.758 0.057c-58.027 3.84-104.96-34.133-160.853-34.133s-90.453 34.133-152.32 34.133c-71.181-4.586-132.119-44.517-165.871-102.273l-0.529-0.98c-58.88-88.747-48.64-256 44.8-401.92 33.707-51.627 78.507-110.080 137.387-110.080 52.053 0 66.56 33.707 137.387 33.707s85.333-34.133 136.107-33.707c58.88 0 105.813 64.853 139.52 116.48 11.789 17.183 23.427 37.024 33.679 57.675l1.308 2.912c2.274 5.049 3.599 10.946 3.599 17.151 0 14.906-7.644 28.027-19.225 35.656l-0.16 0.099c-49.044 32.312-80.966 87.135-80.966 149.414 0 50.371 20.882 95.864 54.461 128.296l0.052 0.050z" />
<glyph unicode="&#xe93d;" glyph-name="archive-tick" d="M692.907 881.92h-361.813c-104.763-0.242-189.625-85.104-189.867-189.844v-601.196c0.351-42.148 34.6-76.179 76.797-76.179 13.967 0 27.062 3.728 38.347 10.244l-0.371-0.197 217.6 124.587c11.025 6.429 24.269 10.224 38.4 10.224s27.375-3.795 38.769-10.422l-0.369 0.198 217.6-124.587c11.016-6.469 24.262-10.29 38.401-10.29 42.283 0 76.585 34.17 76.799 76.403v601.193c-0.243 104.913-85.347 189.867-190.293 189.867 0 0 0 0-0.001 0v0zM666.453 563.2l-170.667-170.667c-5.875-5.648-13.812-9.189-22.575-9.386l-0.038-0.001c-8.483 0.028-16.164 3.444-21.764 8.964l0.004-0.004-67.413 64.427c-4.212 5.367-6.756 12.219-6.756 19.665 0 17.673 14.327 32 32 32 6.478 0 12.506-1.925 17.543-5.233l-0.121 0.075 44.8-42.667 149.333 148.053c5.846 8.439 15.479 13.896 26.386 13.896 17.673 0 32-14.327 32-32 0-11.668-6.245-21.877-15.574-27.468l-0.145-0.081z" />
<glyph unicode="&#xe93e;" glyph-name="archive" d="M829.013 529.92h-634.027c0 0-0.001 0-0.001 0-60.56 0-109.653 49.093-109.653 109.653 0 0.15 0 0.3 0.001 0.45v-0.023 128c1.666 59.261 50.103 106.667 109.613 106.667 0.014 0 0.029 0 0.043 0h634.024c0.006 0 0.013 0 0.021 0 59.81 0 108.435-47.885 109.631-107.408l0.002-0.112v-128c-0.242-60.376-49.243-109.227-109.653-109.227 0 0-0.001 0-0.001 0v0zM829.013 529.92v0zM831.573 466.347v-350.293c0-53.491-43.363-96.853-96.853-96.853v0h-445.44c-53.491 0-96.853 43.363-96.853 96.853v0 350.293h640zM640 316.587c0 17.673-14.327 32-32 32v0h-154.88c-17.673 0-32-14.327-32-32s14.327-32 32-32v0h153.173c0.383-0.016 0.831-0.025 1.282-0.025 17.768 0 32.198 14.29 32.424 32.004v0.021z" />
<glyph unicode="&#xe93f;" glyph-name="arrow-circle-left" d="M758.187 818.347h-368.213c-101.033-1.907-182.205-84.259-182.205-185.569 0-0.911 0.007-1.821 0.020-2.728l-0.002 0.137v-213.333l-66.56 69.12c-5.789 5.782-13.784 9.359-22.613 9.359s-16.824-3.576-22.614-9.359v0c-5.782-5.789-9.359-13.784-9.359-22.613s3.576-16.824 9.359-22.614v0l122.88-128c5.899-6.064 14.137-9.826 23.253-9.826s17.355 3.762 23.246 9.819l0.007 0.007 122.88 128c5.782 5.789 9.359 13.784 9.359 22.613s-3.576 16.824-9.359 22.614v0c-5.789 5.782-13.784 9.359-22.613 9.359s-16.824-3.576-22.614-9.359v0l-72.96-73.813v218.027c-0.008 0.515-0.012 1.124-0.012 1.733 0 66.733 53.381 120.999 119.773 122.425l0.133 0.002h368.213c66.71-1.192 120.332-55.552 120.332-122.435 0-0.606-0.004-1.212-0.013-1.816l0.001 0.091v-380.16c0.008-0.511 0.012-1.114 0.012-1.718 0-66.798-53.671-121.060-120.242-122.014l-0.090-0.001h-368.213c-51.063 0.324-94.524 32.52-111.514 77.68l-0.273 0.826c-4.458 11.818-15.673 20.070-28.815 20.070-4.065 0-7.946-0.79-11.498-2.224l0.206 0.074c-11.883-4.988-20.077-16.529-20.077-29.983 0-4.582 0.95-8.942 2.665-12.894l-0.081 0.21c26.158-70.057 92.508-119.040 170.298-119.040 0.13 0 0.259 0 0.389 0h368.193c101.169 1.433 182.631 83.781 182.631 185.156 0 0.906-0.007 1.811-0.019 2.714l0.002-0.137v381.44c0.011 0.764 0.018 1.665 0.018 2.568 0 101.91-82.136 184.637-183.82 185.592l-0.091 0.001z" />
<glyph unicode="&#xe940;" glyph-name="arrow-circle-right" d="M886.613 485.973l-66.56-69.973v213.333c0.021 1.040 0.033 2.266 0.033 3.495 0 100.565-79.982 182.449-179.805 185.511l-0.282 0.007h-370.347c-100.986-1.667-182.211-83.923-182.211-185.15 0-1.058 0.009-2.115 0.027-3.169l-0.002 0.159v-380.16c-0.001-0.261-0.002-0.569-0.002-0.877 0-101.219 81.212-183.47 182.031-185.147l0.157-0.002h370.347c0.11 0 0.239 0 0.369 0 77.79 0 144.14 48.983 169.887 117.789l0.411 1.252c1.633 3.742 2.584 8.102 2.584 12.684 0 13.454-8.194 24.995-19.863 29.903l-0.213 0.080c-3.345 1.361-7.226 2.15-11.292 2.15-13.142 0-24.357-8.253-28.745-19.859l-0.070-0.211c-16.451-47.625-60.8-81.263-113.039-81.493h-370.375c-66.661 0.955-120.332 55.217-120.332 122.015 0 0.604 0.004 1.207 0.013 1.81l-0.001-0.091v380.16c-0.008 0.513-0.012 1.118-0.012 1.725 0 66.883 53.622 121.242 120.22 122.433l0.112 0.002h370.347c66.524-1.428 119.906-55.694 119.906-122.427 0-0.609-0.004-1.218-0.013-1.825l0.001 0.092v-218.027l-70.4 73.813c-5.789 5.782-13.784 9.359-22.613 9.359s-16.824-3.576-22.614-9.359v0c-5.782-5.789-9.359-13.784-9.359-22.613s3.576-16.824 9.359-22.614v0l122.88-128c5.899-6.064 14.137-9.826 23.253-9.826s17.355 3.762 23.246 9.819l0.007 0.007 122.88 128c5.782 5.789 9.359 13.784 9.359 22.613s-3.576 16.824-9.359 22.614v0c-5.914 7.327-14.894 11.975-24.96 11.975s-19.046-4.648-24.912-11.914l-0.048-0.061z" />
<glyph unicode="&#xe941;" glyph-name="arrow-diagonal" d="M787.2 759.040h-179.2c-17.673 0-32-14.327-32-32s14.327-32 32-32v0 0h103.253l-446.72-451.413v104.533c0 0.001 0 0.002 0 0.003 0 17.759-14.276 32.183-31.977 32.424h-0.023c-0.525 0.033-1.139 0.051-1.758 0.051-16.731 0-30.293-13.563-30.293-30.293 0-0.618 0.019-1.232 0.055-1.842l-0.004 0.084-2.133-179.2c0.082-8.956 3.644-17.064 9.397-23.051l-0.011 0.011c5.786-5.793 13.78-9.379 22.612-9.387h3.842l175.787 2.133c0.003 0 0.007 0 0.012 0 17.437 0 31.573 14.136 31.573 31.573 0 0.3-0.004 0.599-0.013 0.897l0.001-0.044c-0.241 17.489-14.474 31.573-31.997 31.573-0.001 0-0.002 0-0.003 0h-97.707l442.88 443.307v-98.56c0-0.003 0-0.007 0-0.011 0-17.609 14.036-31.939 31.529-32.414l0.044-0.001c17.577 0.237 31.763 14.423 32 31.977v179.223c0.024 0.471 0.037 1.022 0.037 1.577 0 8.181-2.914 15.681-7.762 21.519l0.045-0.055c-6.231 5.571-14.412 9.077-23.404 9.385l-0.062 0.002z" />
<glyph unicode="&#xe942;" glyph-name="arrow-down-left" d="M764.587 183.467c0-23.564-19.103-42.667-42.667-42.667v0h-358.4c-23.564 0-42.667 19.103-42.667 42.667s19.103 42.667 42.667 42.667v0h256l-285.867 285.44c-7.668 7.712-12.407 18.343-12.407 30.080s4.74 22.368 12.409 30.082l-0.002-0.002c7.712 7.668 18.343 12.407 30.080 12.407s22.368-4.74 30.082-12.409l-0.002 0.002 285.44-285.013v256c0 23.564 19.103 42.667 42.667 42.667s42.667-19.103 42.667-42.667v0z" />
<glyph unicode="&#xe943;" glyph-name="arrow-down-refraction" d="M901.547 480c-17.538-0.476-31.573-14.807-31.573-32.415 0-0.004 0-0.008 0-0.012v0.001-92.587l-229.973 221.013c-5.761 4.738-13.212 7.61-21.333 7.61s-15.572-2.872-21.392-7.657l0.059 0.047-166.4-154.88-264.96 261.12c-6.084 6.008-14.449 9.719-23.68 9.719s-17.596-3.711-23.683-9.723l0.003 0.003c-5.909-6.128-9.55-14.479-9.55-23.68s3.641-17.552 9.56-23.69l-0.010 0.010 288-283.733c6.036-5.76 14.231-9.305 23.253-9.305s17.217 3.545 23.267 9.318l-0.013-0.013 164.693 157.44 220.16-213.333h-121.173c-17.267-0.842-31.116-14.395-32.42-31.458l-0.007-0.116c-0.002-0.128-0.003-0.278-0.003-0.429 0-17.524 14.086-31.758 31.554-31.997l186.903-2.134c0.001 0 0.002 0 0.003 0 17.673 0 32 14.327 32 32 0 0.15-0.001 0.3-0.003 0.449v-0.023 186.88c-0.933 17.631-15.456 31.573-33.236 31.573-0.015 0-0.031 0-0.046 0h0.002z" />
<glyph unicode="&#xe944;" glyph-name="arrow-down-right" d="M743.253 204.8c-2.56-19.666-19.208-34.698-39.366-34.698-1.162 0-2.312 0.050-3.449 0.148l0.148-0.010h-359.253c-5.85 0.139-11.404 1.222-16.575 3.102l0.362-0.115c-9.654 3.297-17.428 9.964-22.084 18.566l-0.103 0.208c-2.263 3.663-3.788 8.012-4.256 12.673l-0.010 0.127v289.28c2.344 19.646 18.906 34.732 38.992 34.732 1.294 0 2.573-0.063 3.835-0.185l-0.16 0.013c1.101 0.11 2.381 0.172 3.675 0.172 20.086 0 36.648-15.086 38.974-34.546l0.018-0.186v-206.080l285.44 230.4c8.24 6.357 18.713 10.19 30.080 10.19s21.84-3.832 30.195-10.275l-0.115 0.086c7.624-5.483 12.53-14.328 12.53-24.32s-4.906-18.837-12.441-24.259l-0.089-0.061-285.013-230.4h256c1.101 0.11 2.381 0.172 3.675 0.172 20.086 0 36.648-15.086 38.974-34.546l0.018-0.186z" />
<glyph unicode="&#xe945;" glyph-name="arrow-down" d="M733.013 475.733l-178.347-180.48v403.627c0 23.564-19.103 42.667-42.667 42.667s-42.667-19.103-42.667-42.667v0-403.627l-182.187 180.48c-7.753 7.753-18.463 12.548-30.293 12.548-23.661 0-42.841-19.181-42.841-42.841 0-11.83 4.795-22.541 12.548-30.293v0l253.44-253.013c3.804-3.896 8.336-7.062 13.38-9.279l0.274-0.107c5.128-2.166 11.091-3.424 17.347-3.424 0.351 0 0.702 0.004 1.051 0.012l-0.052-0.001c0.155-0.002 0.339-0.003 0.523-0.003 5.649 0 11.042 1.098 15.977 3.092l-0.286-0.102c5.317 2.325 9.849 5.491 13.645 9.378l0.008 0.008 253.44 253.013c7.753 7.753 12.548 18.463 12.548 30.293 0 23.661-19.181 42.841-42.841 42.841-11.83 0-22.541-4.795-30.293-12.548v0z" />
<glyph unicode="&#xe946;" glyph-name="arrow-left" d="M763.307 490.667h-403.627l180.48 180.48c4.464 6.637 7.124 14.81 7.124 23.605 0 23.564-19.103 42.667-42.667 42.667-9.226 0-17.768-2.928-24.748-7.907l0.13 0.088-253.44-253.44c-7.546-7.161-12.47-17.022-13.219-28.029l-0.007-0.131c0.012-6.014 1.266-11.732 3.52-16.916l-0.107 0.276c2.2-5.299 5.227-9.831 8.968-13.662l253.432-253.432c7.715-7.662 18.344-12.397 30.080-12.397 23.577 0 42.691 19.113 42.691 42.691 0 11.842-4.821 22.557-12.608 30.291l-0.002 0.002-179.627 180.48h403.627c23.564 0 42.667 19.103 42.667 42.667s-19.103 42.667-42.667 42.667v0z" />
<glyph unicode="&#xe947;" glyph-name="arrow-mix" d="M930.56 716.373c5.585-5.878 9.021-13.844 9.021-22.613s-3.436-16.736-9.034-22.627l0.013 0.014-113.067-116.907c-5.516-5.711-13.211-9.287-21.742-9.386h-0.018c-8.531 0.198-16.195 3.75-21.757 9.383l-0.003 0.003c-5.585 5.878-9.021 13.844-9.021 22.613s3.436 16.736 9.034 22.627l-0.013-0.014 55.893 58.453h-113.493l-469.333-482.133c-5.459-5.785-13.179-9.387-21.739-9.387-0.007 0-0.015 0-0.022 0h-108.799c-17.673 0-32 14.327-32 32s14.327 32 32 32v0h96.853l209.493 217.6-209.493 216.32h-96.853c-17.673 0-32 14.327-32 32s14.327 32 32 32v0h108.373c0.006 0 0.014 0 0.021 0 8.561 0 16.28-3.602 21.725-9.372l0.014-0.015 220.16-228.267 213.333 221.013c5.732 5.624 13.525 9.165 22.144 9.386l0.042 0.001h132.267l-56.32 62.72c-5.585 5.878-9.021 13.844-9.021 22.613s3.436 16.736 9.034 22.627l-0.013-0.014c5.473 5.43 13.011 8.786 21.333 8.786s15.86-3.356 21.335-8.788l-0.002 0.002zM820.907 341.76c-5.473 5.43-13.011 8.786-21.333 8.786s-15.86-3.356-21.335-8.788l0.002 0.002c-5.585-5.878-9.021-13.844-9.021-22.613s3.436-16.736 9.034-22.627l-0.013 0.014 56.32-58.453h-101.973l-106.667 109.653c-5.473 5.43-13.011 8.786-21.333 8.786s-15.86-3.356-21.335-8.788l0.002 0.002c-5.682-5.835-9.186-13.815-9.186-22.613s3.504-16.778 9.193-22.62l-0.007 0.007 115.627-119.040c5.516-5.711 13.211-9.287 21.742-9.386h113.511l-59.733-61.867c-5.782-5.789-9.359-13.784-9.359-22.613s3.576-16.824 9.359-22.614v0c5.321-5.78 12.924-9.389 21.37-9.389 0.137 0 0.274 0.001 0.411 0.003h-0.021c0.006 0 0.014 0 0.021 0 8.561 0 16.28 3.602 21.725 9.372l0.014 0.015 112.64 116.907c5.585 5.878 9.021 13.844 9.021 22.613s-3.436 16.736-9.034 22.627l0.013-0.014z" />
<glyph unicode="&#xe948;" glyph-name="arrow-right-left" d="M938.667 226.56c0-0.001 0-0.002 0-0.003 0-17.523-14.085-31.757-31.551-31.997h-0.023l-713.813-2.56 68.693-73.387c5.682-5.835 9.186-13.815 9.186-22.613s-3.504-16.778-9.193-22.62l0.007 0.007c-5.57-5.23-13.068-8.464-21.32-8.533h-0.014c-0.573-0.036-1.243-0.056-1.918-0.056-10.202 0-19.318 4.65-25.344 11.947l-0.045 0.056-118.187 128c-5.057 5.635-8.149 13.123-8.149 21.333s3.092 15.698 8.175 21.363l-0.026-0.030 118.187 115.2c5.789 5.782 13.784 9.359 22.613 9.359s16.824-3.576 22.614-9.359v0c5.236-5.559 8.453-13.071 8.453-21.333s-3.217-15.774-8.468-21.349l0.015 0.016-61.013-62.293h709.12c0.003 0 0.007 0 0.011 0 17.373 0 31.513-13.845 31.988-31.103l0.001-0.044zM810.667 773.973c-5.518 5.331-13.042 8.616-21.333 8.616s-15.816-3.285-21.342-8.624l0.009 0.008c-5.057-5.635-8.149-13.123-8.149-21.333s3.092-15.698 8.175-21.363l-0.026 0.030 63.147-64h-711.68c-16.014-1.912-28.311-15.413-28.311-31.787s12.297-29.874 28.159-31.772l0.152-0.015h715.093l-63.573-64c-5.656-5.767-9.147-13.676-9.147-22.4s3.491-16.633 9.152-22.405l-0.005 0.005c5.526-6.009 13.413-9.773 22.179-9.813h0.007c1.215-0.175 2.618-0.275 4.044-0.275 6.668 0 12.826 2.185 17.796 5.878l-0.080-0.057 114.347 114.773c5.813 5.795 9.41 13.81 9.41 22.665 0 0.432-0.009 0.862-0.026 1.29l0.002-0.061c-0.082 8.956-3.644 17.064-9.397 23.051l0.011-0.011z" />
<glyph unicode="&#xe949;" glyph-name="arrow-right" d="M802.56 429.653c2.222 4.828 3.518 10.476 3.518 16.427s-1.296 11.598-3.621 16.677l0.103-0.25c-2.2 5.299-5.227 9.831-8.968 13.662l-253.432 253.432c-7.412 6.377-17.129 10.259-27.753 10.259-23.564 0-42.667-19.103-42.667-42.667 0-10.624 3.883-20.341 10.307-27.809l-0.047 0.056 180.48-178.773h-404.48c-23.564 0-42.667-19.103-42.667-42.667s19.103-42.667 42.667-42.667v0h403.627l-180.48-180.48c-7.789-7.736-12.611-18.452-12.611-30.293 0-23.577 19.113-42.691 42.691-42.691 11.736 0 22.365 4.735 30.082 12.4l253.438 253.438c3.928 3.329 7.202 7.284 9.703 11.732l0.111 0.214z" />
<glyph unicode="&#xe94a;" glyph-name="arrow-two-diagonals" d="M795.307 515.413v0c17.673 0 32 14.327 32 32v0l2.133 179.2c-0.008 8.833-3.594 16.828-9.386 22.613v0c-5.182 5.814-12.691 9.457-21.052 9.457-0.7 0-1.393-0.026-2.080-0.076l0.092 0.005h-179.2c-0.003 0-0.007 0-0.012 0-17.437 0-31.573-14.136-31.573-31.573 0-0.3 0.004-0.599 0.013-0.897l-0.001 0.044c0.241-17.489 14.474-31.573 31.997-31.573 0.001 0 0.002 0 0.003 0h90.453l-196.693-197.973-195.84 197.12h89.6c0.001 0 0.002 0 0.003 0 17.523 0 31.757 14.085 31.997 31.551v0.023c0.007 0.254 0.012 0.553 0.012 0.853 0 17.437-14.136 31.573-31.573 31.573-0.004 0-0.008 0-0.012 0h-179.199c-0.381 0.017-0.827 0.027-1.275 0.027-8.574 0-16.304-3.613-21.751-9.399l-0.014-0.015c-5.742-5.976-9.305-14.084-9.387-23.024v-0.016l2.133-179.2c0-17.673 14.327-32 32-32v0 0c17.724 0.241 32 14.665 32 32.424 0 0.001 0 0.002 0 0.003v0l-1.28 114.773 209.92-210.347-206.080-205.653v102.827c0.002 0.128 0.003 0.278 0.003 0.429 0 17.524-14.086 31.758-31.554 31.997h-0.023c-17.577-0.237-31.763-14.423-32-31.977v-179.223c0.082-8.956 3.644-17.064 9.397-23.051l-0.011 0.011c5.786-5.793 13.78-9.379 22.612-9.387h0.002l179.2 2.133c0.003 0 0.007 0 0.012 0 17.437 0 31.573 14.136 31.573 31.573 0 0.3-0.004 0.599-0.013 0.897l0.001-0.044c-0.476 17.538-14.807 31.573-32.415 31.573-0.004 0-0.008 0-0.012 0h-98.986l200.96 202.24 202.667-203.947h-100.267c-17.576-0.452-31.736-14.463-32.425-31.936l-0.002-0.064c-0.002-0.127-0.003-0.277-0.003-0.427 0-17.437 14.136-31.573 31.573-31.573 0.001 0 0.002 0 0.003 0v0l179.2-2.133c8.833 0.008 16.828 3.594 22.613 9.386v0c5.742 5.976 9.305 14.084 9.387 23.024v179.216c0 17.673-14.327 32-32 32s-32-14.327-32-32v0-101.547l-203.093 204.373 206.933 208.213v-111.36c0.66-16.782 13.979-30.25 30.639-31.143l0.081-0.003z" />
<glyph unicode="&#xe94b;" glyph-name="arrow-up-down" d="M853.333 172.8c0.020-0.417 0.031-0.907 0.031-1.399 0-8.803-3.603-16.765-9.414-22.491l-0.004-0.004-122.027-119.040c-5.318-5.757-12.906-9.35-21.333-9.35s-16.015 3.593-21.315 9.33l-0.018 0.020-110.080 116.48c-5.585 5.878-9.021 13.844-9.021 22.613s3.436 16.736 9.034 22.627l-0.013-0.014c5.259 5.877 12.866 9.558 21.333 9.558s16.075-3.681 21.309-9.531l0.024-0.027 58.453-61.44v711.68c-0.136 1.077-0.213 2.324-0.213 3.589 0 16.731 13.563 30.293 30.293 30.293s30.293-13.563 30.293-30.293c0-1.265-0.078-2.511-0.228-3.736l0.015 0.147v-715.947l69.973 69.12c5.318 5.757 12.906 9.35 21.333 9.35s16.015-3.593 21.315-9.33l0.018-0.020c6.088-5.522 9.974-13.376 10.239-22.14l0.001-0.047zM341.333 865.28c-5.325 5.821-12.954 9.458-21.433 9.458-0.716 0-1.425-0.026-2.128-0.077l0.094 0.005c-8.549-0.099-16.244-3.676-21.751-9.378l-0.009-0.009-115.627-120.747c-4.972-5.669-8.006-13.147-8.006-21.333s3.033-15.664 8.038-21.37l-0.032 0.037c5.425-5.531 12.977-8.96 21.329-8.96 0.002 0 0.003 0 0.005 0v0c8.432 0.010 16.020 3.616 21.315 9.366l0.019 0.020 61.013 61.44v-711.253c0-16.731 13.563-30.293 30.293-30.293s30.293 13.563 30.293 30.293v0 717.653l60.587-63.573c5.374-5.643 12.944-9.152 21.333-9.152s15.959 3.509 21.322 9.14l0.011 0.012c5.057 5.635 8.149 13.123 8.149 21.333s-3.092 15.698-8.175 21.363l0.026-0.030z" />
<glyph unicode="&#xe94c;" glyph-name="arrow-up-left" d="M733.867 627.2c0 23.564-19.103 42.667-42.667 42.667v0h-358.4c-5.873-0.073-11.435-1.322-16.489-3.52l0.275 0.107c-10.46-4.422-18.618-12.58-22.935-22.76l-0.105-0.28c-2.092-4.778-3.34-10.34-3.413-16.186v-358.427c0-23.564 19.103-42.667 42.667-42.667s42.667 19.103 42.667 42.667v0 256l285.44-285.013c7.736-7.789 18.452-12.611 30.293-12.611 23.577 0 42.691 19.113 42.691 42.691 0 11.736-4.735 22.365-12.4 30.082l0.002-0.002-285.44 284.587h256c23.194 0.479 41.813 19.394 41.813 42.658 0 0.003 0 0.006 0 0.009v0z" />
<glyph unicode="&#xe94d;" glyph-name="arrow-up-refraction" d="M907.093 688.213h-189.44c-17.49-0.239-31.576-14.473-31.576-31.997 0-0.151 0.001-0.302 0.003-0.452v0.023c-0.008-0.269-0.013-0.584-0.013-0.902 0-16.966 13.754-30.72 30.72-30.72 0.605 0 1.206 0.017 1.802 0.052l-0.082-0.004h101.973l-217.6-213.333-166.827 159.573c-6.016 5.983-14.309 9.682-23.467 9.682s-17.451-3.699-23.468-9.683l0.001 0.001-291.84-288c-6.033-6.152-9.757-14.588-9.757-23.893s3.724-17.742 9.763-23.899l-0.005 0.005c6.311-6.041 14.876-9.772 24.312-9.813h0.008c0.048 0 0.105 0 0.162 0 8.997 0 17.115 3.763 22.866 9.801l0.012 0.013 268.373 264.107 166.827-159.147c6.061-5.883 14.34-9.51 23.467-9.51s17.406 3.627 23.475 9.519l-0.008-0.008 247.893 241.493v-114.347c0-0.001 0-0.002 0-0.003 0-17.523 14.085-31.757 31.551-31.997h0.023c0.001 0 0.002 0 0.003 0 17.523 0 31.757 14.085 31.997 31.551v0.023l0.427 189.44c-0.082 8.956-3.644 17.064-9.397 23.051l0.011-0.011c-5.459 5.787-13.18 9.39-21.742 9.39-0.156 0-0.312-0.001-0.468-0.004h0.024z" />
<glyph unicode="&#xe94e;" glyph-name="arrow-up-right" d="M707.413 666.453c-4.778 2.092-10.34 3.34-16.186 3.413h-358.427c-23.564 0-42.667-19.103-42.667-42.667s19.103-42.667 42.667-42.667v0h256l-285.867-285.44c-7.668-7.712-12.407-18.343-12.407-30.080s4.74-22.368 12.409-30.082l-0.002 0.002c7.712-7.668 18.343-12.407 30.080-12.407s22.368 4.74 30.082 12.409l-0.002-0.002 285.44 285.013v-256c0-23.564 19.103-42.667 42.667-42.667s42.667 19.103 42.667 42.667v0 359.253c-0.091 17.632-10.863 32.726-26.172 39.149l-0.281 0.105z" />
<glyph unicode="&#xe94f;" glyph-name="arrow-up" d="M793.6 475.733l-253.44 253.013c-3.714 4.030-8.274 7.221-13.404 9.298l-0.249 0.089c-4.257 1.884-9.201 3.11-14.393 3.408l-0.114 0.005c-6.014-0.012-11.732-1.266-16.916-3.52l0.276 0.107c-5.379-2.166-9.939-5.356-13.63-9.361l-0.023-0.026-255.147-253.013c-7.753-7.753-12.548-18.463-12.548-30.293 0-23.661 19.181-42.841 42.841-42.841 11.83 0 22.541 4.795 30.293 12.548v0l182.187 180.48v-403.627c0-23.564 19.103-42.667 42.667-42.667s42.667 19.103 42.667 42.667v0 403.627l180.053-180.48c7.709-7.648 18.326-12.374 30.047-12.374 0.087 0 0.173 0 0.26 0.001h-0.013c0.073 0 0.16-0.001 0.247-0.001 11.721 0 22.338 4.726 30.049 12.377l-0.003-0.003c7.299 7.643 11.791 18.021 11.791 29.448 0 12.272-5.181 23.334-13.475 31.118l-0.023 0.021z" />
<glyph unicode="&#xe950;" glyph-name="arrow-zigzag" d="M744.533 329.813c-5.951 5.951-14.172 9.632-23.253 9.632-18.162 0-32.885-14.723-32.885-32.885 0-9.081 3.681-17.302 9.632-23.253v0l72.107-72.533h-456.533c-1.947-0.136-4.219-0.213-6.509-0.213-54.904 0-99.413 44.509-99.413 99.413s44.509 99.413 99.413 99.413c2.29 0 4.563-0.077 6.814-0.23l-0.305 0.017h409.6c90.005 1.56 162.37 74.889 162.37 165.12 0 91.206-73.937 165.143-165.143 165.143-0.975 0-1.948-0.008-2.919-0.025l0.146 0.002h-461.653l72.533 72.533c5.983 6.016 9.682 14.309 9.682 23.467s-3.699 17.451-9.683 23.468l0.001-0.001c-5.948 5.959-14.17 9.645-23.253 9.645s-17.306-3.686-23.253-9.645l-128.001-128.001c-6.057-5.897-9.814-14.131-9.814-23.241 0-0.079 0-0.158 0.001-0.237v0.012c0.037-9.175 3.782-17.468 9.812-23.465l128.001-128.001c5.899-6.064 14.137-9.826 23.253-9.826s17.355 3.762 23.246 9.819l0.007 0.007c5.959 5.948 9.645 14.17 9.645 23.253s-3.686 17.306-9.645 23.253l-0.001 0.001-72.533 71.68h461.653c54.904 0 99.413-44.509 99.413-99.413s-44.509-99.413-99.413-99.413h-409.6c-90.005-1.56-162.37-74.889-162.37-165.12 0-91.206 73.937-165.143 165.143-165.143 0.975 0 1.948 0.008 2.919 0.025l-0.146-0.002h456.533l-72.107-72.533c-5.959-5.948-9.645-14.17-9.645-23.253s3.686-17.306 9.645-23.253l0.001-0.001c5.899-6.064 14.137-9.826 23.253-9.826s17.355 3.762 23.246 9.819l128.007 128.007c5.959 5.948 9.645 14.17 9.645 23.253s-3.686 17.306-9.645 23.253l-0.001 0.001z" />
<glyph unicode="&#xe951;" glyph-name="arrows-circle" d="M204.8 508.16c-3.241-15.006-16.401-26.087-32.149-26.087-0.698 0-1.391 0.022-2.079 0.065l0.094-0.005h-7.253c-14.942 3.291-25.957 16.42-25.957 32.121 0 2.528 0.285 4.989 0.826 7.353l-0.042-0.221c42.648 180.797 202.171 313.455 392.849 314.453h0.111c113.825-0.005 216.574-47.427 289.571-123.591l0.136-0.143v117.333c0 18.38 14.9 33.28 33.28 33.28s33.28-14.9 33.28-33.28v0-198.4c-0.241-18.196-15.047-32.853-33.277-32.853-0.001 0-0.002 0-0.003 0h-199.68c-1.129-0.136-2.437-0.213-3.762-0.213-18.38 0-33.28 14.9-33.28 33.28s14.9 33.28 33.28 33.28c1.326 0 2.633-0.078 3.918-0.228l-0.156 0.015h123.307c-61.48 65.334-148.515 106.020-245.052 106.020-159.441 0-292.96-110.984-327.518-259.912l-0.443-2.268zM901.547 392.107c-2.019 0.435-4.339 0.685-6.717 0.685-15.902 0-29.199-11.153-32.496-26.064l-0.041-0.221c-32.248-154.473-167.291-268.849-329.047-268.849-98.446 0-186.997 42.365-248.416 109.858l-0.243 0.271h128c18.38 0 33.28 14.9 33.28 33.28v0c0 0.001 0 0.002 0 0.003 0 18.144-14.709 32.853-32.853 32.853-0.15 0-0.3-0.001-0.449-0.003h-185.577c-18.144 0-32.853-14.709-32.853-32.853v0-192c-0.136-1.129-0.213-2.437-0.213-3.762 0-18.38 14.9-33.28 33.28-33.28s33.28 14.9 33.28 33.28c0 1.326-0.078 2.633-0.228 3.918l0.015-0.156v89.6c71.49-66.437 167.626-107.208 273.285-107.208 193.163 0 354.499 136.265 393.127 317.911l0.468 2.63c0.669 2.46 1.053 5.284 1.053 8.198 0 15.868-11.398 29.074-26.453 31.878l-0.2 0.031z" />
<glyph unicode="&#xe952;" glyph-name="arrows-loop" d="M857.173 424.96v-109.653c0.013-0.769 0.020-1.677 0.020-2.587 0-89.208-71.481-161.72-160.291-163.384l-0.156-0.002h-421.12l60.16-68.267c5.585-5.878 9.021-13.844 9.021-22.613s-3.436-16.736-9.034-22.627l0.013 0.014c-5.319-5.275-12.643-8.534-20.728-8.534-0.063 0-0.126 0-0.188 0.001h0.010c-8.991 0.028-17.056 3.969-22.586 10.208l-0.028 0.032-113.067 128c-4.891 5.702-7.869 13.17-7.869 21.333s2.977 15.632 7.906 21.377l-0.037-0.044 112.64 115.2c5.473 5.43 13.011 8.786 21.333 8.786s15.86-3.356 21.335-8.788l-0.002 0.002c5.493-5.918 8.863-13.872 8.863-22.613s-3.37-16.696-8.882-22.634l0.019 0.021-65.28-65.28h426.667c54.925 1.191 98.995 45.998 98.995 101.098 0 0.458-0.003 0.915-0.009 1.371l0.001-0.069v109.653c0 16.966 13.754 30.72 30.72 30.72s30.72-13.754 30.72-30.72v0zM729.173 859.733c-5.473 5.43-13.011 8.786-21.333 8.786s-15.86-3.356-21.335-8.788l0.002 0.002c-5.585-5.878-9.021-13.844-9.021-22.613s3.436-16.736 9.034-22.627l-0.013 0.014 62.72-64.427h-419.413c-88.454-2.603-159.168-74.93-159.168-163.773 0-0.923 0.008-1.845 0.023-2.765l-0.002 0.138v-103.253c-0.002-0.13-0.003-0.284-0.003-0.438 0-17.138 13.655-31.088 30.679-31.561l0.044-0.001c17.254 0.239 31.15 14.282 31.15 31.57 0 0.151-0.001 0.302-0.003 0.452v-0.023 103.253c-0.015 0.639-0.023 1.392-0.023 2.147 0 54.784 43.936 99.306 98.494 100.251l0.089 0.001h426.667l-62.72-64c-5.682-5.835-9.186-13.815-9.186-22.613s3.504-16.778 9.193-22.62l-0.007 0.007c5.459-5.785 13.179-9.387 21.739-9.387 0.007 0 0.015 0 0.022 0h-0.001c7.848 0.14 14.914 3.375 20.052 8.532l0.001 0.001 113.067 115.2c5.545 5.684 8.965 13.462 8.965 22.040 0 0.202-0.002 0.403-0.006 0.604v-0.030c0.004 0.195 0.007 0.424 0.007 0.654 0 8.687-3.416 16.577-8.978 22.398l0.012-0.012z" />
<glyph unicode="&#xe953;" glyph-name="artificial-intelligence" d="M853.333 282.453c-10.207-9.6-22.652-16.944-36.461-21.16l-0.659-0.173c-5.387-0.916-11.592-1.44-17.92-1.44s-12.533 0.524-18.575 1.53l0.655-0.090c-62.105 7.444-116.316 17.328-169.375 30.162l9.801-2.002c-13.641 3.197-29.304 5.030-45.395 5.030-31.186 0-60.764-6.885-87.298-19.217l1.279 0.534c-6.487-4.673-13.888-9.207-21.62-13.189l-0.993-0.465c-8.303-3.524-17.941-5.693-28.051-5.971l-0.109-0.002c-0.937-0.027-2.041-0.042-3.147-0.042-36.548 0-69.236 16.53-90.994 42.522l-0.152 0.186c-13.639 19.558-21.792 43.825-21.792 69.996 0 13.091 2.040 25.706 5.82 37.544l-0.241-0.873c-9.029-1.632-19.421-2.565-30.031-2.565-22.159 0-43.368 4.071-62.919 11.505l1.216-0.406c-31.884 9.565-58.916 27.217-79.631 50.595l-0.155 0.179c-59.307 77.227-17.92 174.507 49.92 229.973 54.681 45.574 122.514 77.183 197.016 88.468l2.237 0.279v-42.667l-69.547-75.947c-6.364 2.104-13.692 3.348-21.301 3.413h-0.032c-0.398 0.007-0.867 0.011-1.337 0.011-44.772 0-81.067-36.295-81.067-81.067s36.295-81.067 81.067-81.067c44.772 0 81.067 36.295 81.067 81.067 0 14.747-3.937 28.573-10.818 40.487l0.208-0.391 72.96 76.8c4.95 5.536 8.007 12.855 8.106 20.886v64.447h37.547c19.627 0 42.667-2.56 61.013-4.693v-213.333l-25.173-29.013c-7.205 2.393-15.523 3.928-24.15 4.261l-0.17 0.005c-0.635 0.018-1.383 0.028-2.133 0.028-44.772 0-81.067-36.295-81.067-81.067s36.295-81.067 81.067-81.067c44.762 0 81.051 36.279 81.067 81.037v0.002c0 0.063 0 0.138 0 0.213 0 13.673-3.476 26.533-9.593 37.746l0.206-0.413 31.573 36.693c4.763 5.212 7.681 12.181 7.681 19.831 0 0.078 0 0.157-0.001 0.235v-0.012 213.333c19.134-4.043 35.828-9.336 51.775-16.054l-1.855 0.694c18.701-8.272 34.672-17.254 49.671-27.549l-1.031 0.669v-231.68c-29.319-12.508-49.496-41.089-49.496-74.383 0-0.25 0.001-0.499 0.003-0.748v0.038c-0.136-1.74-0.213-3.769-0.213-5.815 0-43.829 35.531-79.36 79.36-79.36s79.36 35.531 79.36 79.36c0 2.046-0.077 4.075-0.23 6.082l0.016-0.267c0.002 0.211 0.003 0.46 0.003 0.71 0 33.294-20.177 61.876-48.97 74.184l-0.526 0.2v186.027c14.204-13.418 27.445-27.334 39.917-41.928l0.616-0.739c44.499-49.558 73.278-114.034 78.030-185.089l0.050-0.937c0.427-64 6.827-129.28-46.080-174.080zM516.267 285.013h5.973zM469.333 262.4c5.732 3.155 10.472 6.122 15.042 9.314l-0.535-0.354c-4.035-2.838-8.774-5.805-13.666-8.53l-0.84-0.43zM460.8 258.987v0h3.413zM550.827 291.413v0zM581.973 291.413v0zM798.293 258.987h-2.987zM774.827 198.827c-46.956 4.542-89.243 11.768-130.446 21.769l6.286-1.289-42.667 8.533c-11.778 2.13-25.355 3.37-39.215 3.413h-0.038c-2.054 0.14-4.451 0.22-6.867 0.22-16.071 0-31.315-3.54-44.995-9.882l0.662 0.275-5.547-3.413c-5.615-3.955-12.043-7.786-18.757-11.128l-0.87-0.392 6.827-5.547c41.072-21.884 75.672-50.49 103.63-84.731l0.477-0.602c11.947-19.2 20.907-40.107 31.573-60.16 6.193-13.526 15.854-24.558 27.861-32.248l0.299-0.179c4.157-2.383 9.138-3.789 14.448-3.789 9.837 0 18.546 4.824 23.892 12.236l0.060 0.087c2.284 5.059 3.615 10.968 3.615 17.188 0 1.46-0.073 2.902-0.216 4.325l0.015-0.179c0 31.573-6.827 73.387 18.773 97.28 17.92 16.64 42.667 25.173 54.613 46.507zM618.667 287.573l79.36-16.213zM780.8 838.4c0.136 1.070 0.213 2.308 0.213 3.563 0 16.495-13.372 29.867-29.867 29.867s-29.867-13.372-29.867-29.867c0-1.256 0.078-2.494 0.228-3.709l-0.015 0.145v-106.24c22.195-14.802 41.565-30.241 59.538-47.149l-0.231 0.215zM465.067 789.333v49.067c0.136 1.070 0.213 2.308 0.213 3.563 0 16.495-13.372 29.867-29.867 29.867s-29.867-13.372-29.867-29.867c0-1.256 0.078-2.494 0.228-3.709l-0.015 0.145v-55.040c17.301 3.076 37.737 5.219 58.531 5.952l0.776 0.022zM622.933 838.4c0.136 1.070 0.213 2.308 0.213 3.563 0 16.495-13.372 29.867-29.867 29.867s-29.867-13.372-29.867-29.867c0-1.256 0.078-2.494 0.228-3.709l-0.015 0.145v-54.187c22.572-2.279 42.765-5.738 62.471-10.452l-3.164 0.639z" />
<glyph unicode="&#xe954;" glyph-name="auto-brightness" d="M512 533.333l46.080-98.56h-92.16zM912.64 385.707l-59.307-60.587c-7.905-7.75-12.805-18.541-12.805-30.475 0-0.236 0.002-0.472 0.006-0.707v0.036-85.333c0-49.013-39.733-88.747-88.747-88.747v0h-85.333c-0.2 0.003-0.435 0.005-0.671 0.005-11.935 0-22.725-4.9-30.468-12.798l-60.167-60.167c-16.057-16.040-38.23-25.96-62.72-25.96s-46.663 9.92-62.721 25.961l0.001-0.001-60.587 59.733c-7.75 7.905-18.541 12.805-30.475 12.805-0.236 0-0.472-0.002-0.707-0.006h-85.297c-48.831 0.24-88.324 39.881-88.324 88.746 0 0.3 0.001 0.6 0.004 0.9v-0.046 85.333c0.003 0.2 0.005 0.435 0.005 0.671 0 11.935-4.9 22.725-12.798 30.468l-0.007 0.007-60.16 59.733c-16.040 16.057-25.96 38.23-25.96 62.72s9.92 46.663 25.961 62.721l-0.001-0.001 59.307 60.16c7.905 7.75 12.805 18.541 12.805 30.475 0 0.236-0.002 0.472-0.006 0.707v-0.036 85.333c0.24 48.831 39.881 88.324 88.746 88.324 0.3 0 0.6-0.001 0.9-0.004h85.287c12.14 0.166 23.030 5.377 30.696 13.627l0.024 0.027 60.16 60.16c16.057 16.040 38.23 25.96 62.72 25.96s46.663-9.92 62.721-25.961l60.159-60.159c7.75-7.905 18.541-12.805 30.475-12.805 0.236 0 0.472 0.002 0.707 0.006h85.297c48.831-0.24 88.324-39.881 88.324-88.746 0-0.3-0.001-0.6-0.004-0.9v0.046-85.333c-0.003-0.2-0.005-0.435-0.005-0.671 0-11.935 4.9-22.725 12.798-30.468l60.167-60.167c15.913-16.035 25.748-38.122 25.748-62.507s-9.834-46.472-25.753-62.512l0.006 0.006zM690.773 300.373l-149.76 321.707c-5.815 10.207-16.624 16.977-29.013 16.977s-23.198-6.77-28.927-16.813l-0.086-0.164-149.76-321.28c-2.031-4.054-3.22-8.834-3.22-13.891 0-12.729 7.533-23.699 18.384-28.695l0.196-0.081c4.006-1.94 8.713-3.074 13.685-3.074 12.747 0 23.754 7.454 28.899 18.24l0.083 0.193 44.8 96.427h151.893l44.8-96.427c5.335-10.886 16.303-18.267 29.003-18.347h0.011c0.157-0.003 0.342-0.005 0.528-0.005 4.773 0 9.288 1.104 13.304 3.070l-0.179-0.079c11.071 5.194 18.601 16.247 18.601 29.060 0 5.108-1.197 9.936-3.325 14.22l0.084-0.186z" />
<glyph unicode="&#xe955;" glyph-name="avalanche" d="M512 874.667c-235.641 0-426.667-191.025-426.667-426.667s191.025-426.667 426.667-426.667c235.641 0 426.667 191.025 426.667 426.667v0c0 235.641-191.025 426.667-426.667 426.667v0zM469.333 271.787c-15.657-26.928-44.355-44.753-77.22-44.8h-120.327c-0.231-0.011-0.501-0.017-0.772-0.017-9.661 0-17.493 7.832-17.493 17.493 0 3.314 0.922 6.413 2.523 9.055l-0.044-0.078 122.88 213.333 114.773 198.4c4.954 8.028 13.702 13.297 23.68 13.297s18.726-5.27 23.611-13.178l0.069-0.119 51.627-89.173c7.435-12.739 11.824-28.044 11.824-44.373s-4.389-31.634-12.053-44.798l0.229 0.425-66.987-116.053zM744.107 217.173h-149.76c-0.268-0.009-0.583-0.015-0.9-0.015-15.081 0-27.307 12.226-27.307 27.307 0 5.742 1.772 11.070 4.8 15.467l-0.060-0.092 74.24 128c4.849 8.046 13.539 13.344 23.467 13.344s18.618-5.298 23.398-13.221l0.069-0.123 36.693-64 37.12-64c2.967-4.305 4.74-9.633 4.74-15.375 0-15.081-12.226-27.307-27.307-27.307-0.316 0-0.632 0.005-0.945 0.016l0.046-0.001z" />
<glyph unicode="&#xe956;" glyph-name="award" d="M530.773 756.48c-6.403 1.616-13.757 2.548-21.326 2.56h-0.008c7.659-0.185 14.998-1.108 22.083-2.702l-0.749 0.142zM413.44 797.013c27.914 16.627 61.555 26.456 97.491 26.456 0.376 0 0.752-0.001 1.127-0.003h-0.058c0.008 0 0.018 0 0.027 0 34.502 0 66.86-9.182 94.763-25.237l-0.924 0.49 156.16-88.747v42.667c-1.893 67.803-57.309 122.046-125.394 122.046-0.766 0-1.531-0.007-2.294-0.021l0.115 0.002h-244.907c-0.002 0-0.004 0-0.007 0-68.829 0-124.71-55.434-125.433-124.091l-0.001-0.069v-42.667zM264.107 634.88v0l77.227 44.8zM477.44 754.773h11.093zM541.867 754.773c11.193-3.003 20.979-7.087 30.056-12.271l-0.616 0.324c-8.586 5.038-18.511 9.264-28.985 12.165l-0.881 0.208zM738.133 648.96l21.76-12.373zM849.92 270.507c0-0.018 0-0.040 0-0.061 0-46.257-24.537-86.784-61.306-109.273l-0.561-0.319-210.347-123.307c-18.043-10.642-39.754-16.929-62.933-16.929s-44.891 6.287-63.521 17.249l0.588-0.32-213.333 119.893c-38.026 21.854-63.288 62.132-63.573 108.333v243.667c0 0.046 0 0.1 0 0.154 0 45.906 24.166 86.168 60.471 108.758l0.543 0.315 210.347 123.733c18.102 10.403 39.801 16.54 62.933 16.54s44.831-6.136 63.558-16.87l-0.625 0.33 213.333-119.893c37.786-22.295 62.898-62.541 63.572-108.704l0.001-0.096zM621.227 451.413l-42.667 13.227c-6.783 1.821-12.413 5.926-16.15 11.422l-0.063 0.098-25.173 37.12c-5.444 7.977-14.492 13.145-24.747 13.145s-19.302-5.168-24.68-13.042l-0.066-0.103-25.6-36.693c-3.877-5.515-9.476-9.592-16.005-11.469l-0.208-0.051-42.667-12.8c-12.744-3.598-21.928-15.123-21.928-28.792 0-6.855 2.309-13.171 6.193-18.211l-0.052 0.070 26.88-35.413c3.995-5.232 6.4-11.864 6.4-19.058 0-0.050 0-0.1 0-0.15v0.008-44.8c-0.007-0.241-0.011-0.524-0.011-0.809 0-16.495 13.372-29.867 29.867-29.867 3.52 0 6.897 0.609 10.033 1.727l-0.209-0.065 42.667 14.507c2.983 1.115 6.429 1.76 10.027 1.76s7.044-0.645 10.23-1.826l-0.204 0.066 42.667-14.933c3.050-1.15 6.575-1.816 10.256-1.816 16.495 0 29.867 13.372 29.867 29.867 0 0.339-0.006 0.676-0.017 1.012l0.001-0.049v42.667c-0.030 0.493-0.048 1.070-0.048 1.65 0 6.644 2.266 12.758 6.068 17.612l-0.047-0.063 27.307 35.413c4.342 5.151 6.98 11.862 6.98 19.189 0 14.741-10.679 26.987-24.722 29.425l-0.178 0.026z" />
<glyph unicode="&#xe957;" glyph-name="badge" d="M697.6 834.987h-371.2c-133.293-0.727-241.067-108.949-241.067-242.343 0-0.001 0-0.002 0-0.004v0-289.28c0-133.844 108.502-242.347 242.347-242.347v0h371.2c132.739 1.447 239.787 109.389 239.787 242.333 0 0.005 0 0.009 0 0.014v0 289.28c0 0.001 0 0.002 0 0.003 0 133.394-107.774 241.617-240.997 242.343h-0.069zM349.44 671.147c61.031 0 110.507-49.476 110.507-110.507s-49.476-110.507-110.507-110.507c-61.031 0-110.507 49.476-110.507 110.507v0c0 61.031 49.476 110.507 110.507 110.507v0zM349.44 205.227c-90.88 0-164.267 48.213-164.267 107.947s73.387 107.52 164.267 107.52 162.56-48.213 162.56-107.52-72.107-107.947-162.56-107.947zM791.467 324.267h-149.333c-17.673 0-32 14.327-32 32s14.327 32 32 32v0h149.333c17.673 0 32-14.327 32-32s-14.327-32-32-32v0zM807.68 488.107h-226.56c-17.673 0-32 14.327-32 32s14.327 32 32 32v0h226.56c17.673 0 32-14.327 32-32s-14.327-32-32-32v0z" />
<glyph unicode="&#xe958;" glyph-name="bandage" d="M929.707 661.333c-50.996 84.379-119.863 153.11-201.729 202.467l-2.645 1.479c-9.655 5.953-21.356 9.481-33.881 9.481-17.901 0-34.118-7.205-45.912-18.873l-541.434-541.007c-12.076-11.855-19.561-28.352-19.561-46.597 0-12.416 3.466-24.023 9.484-33.905l-0.163 0.288c48.298-86.913 118.011-156.763 202.173-203.876l2.627-1.351c9.074-5.082 19.912-8.075 31.449-8.075 17.837 0 34.004 7.154 45.787 18.75l-0.009-0.008 544 542.72c11.538 11.765 18.659 27.898 18.659 45.694 0 12.088-3.285 23.408-9.012 33.117l0.166-0.305zM405.76 372.907c-7.686-7.52-18.216-12.16-29.829-12.16-23.564 0-42.667 19.103-42.667 42.667s19.103 42.667 42.667 42.667c11.614 0 22.144-4.64 29.837-12.168l-0.008 0.008c7.924-7.753 12.837-18.556 12.837-30.507s-4.913-22.753-12.83-30.499l-0.008-0.008zM497.067 281.6c-7.686-7.52-18.216-12.16-29.829-12.16-23.564 0-42.667 19.103-42.667 42.667s19.103 42.667 42.667 42.667c11.614 0 22.144-4.64 29.837-12.168l-0.008 0.008c7.924-7.753 12.837-18.556 12.837-30.507s-4.913-22.753-12.83-30.499l-0.008-0.008zM497.067 464.213c-7.686-7.52-18.216-12.16-29.829-12.16-23.564 0-42.667 19.103-42.667 42.667s19.103 42.667 42.667 42.667c11.614 0 22.144-4.64 29.837-12.168l-0.008 0.008c7.924-7.753 12.837-18.556 12.837-30.507s-4.913-22.753-12.83-30.499l-0.008-0.008zM588.373 372.907c-7.686-7.52-18.216-12.16-29.829-12.16-23.564 0-42.667 19.103-42.667 42.667s19.103 42.667 42.667 42.667c11.614 0 22.144-4.64 29.837-12.168l-0.008 0.008c7.924-7.753 12.837-18.556 12.837-30.507s-4.913-22.753-12.83-30.499l-0.008-0.008zM588.373 555.52c-7.686-7.52-18.216-12.16-29.829-12.16-23.564 0-42.667 19.103-42.667 42.667s19.103 42.667 42.667 42.667c11.614 0 22.144-4.64 29.837-12.168l-0.008 0.008c7.924-7.753 12.837-18.556 12.837-30.507s-4.913-22.753-12.83-30.499l-0.008-0.008zM679.68 464.213c-7.686-7.52-18.216-12.16-29.829-12.16-23.564 0-42.667 19.103-42.667 42.667s19.103 42.667 42.667 42.667c11.614 0 22.144-4.64 29.837-12.168l-0.008 0.008c7.924-7.753 12.837-18.556 12.837-30.507s-4.913-22.753-12.83-30.499l-0.008-0.008z" />
<glyph unicode="&#xe959;" glyph-name="bank" d="M878.507 560.64h-58.027v-380.16c0.002-0.127 0.002-0.277 0.002-0.427 0-20.501-16.619-37.12-37.12-37.12-0.001 0-0.002 0-0.003 0h-65.28c-0.001 0-0.002 0-0.002 0-20.501 0-37.12 16.619-37.12 37.12 0 0.15 0.001 0.3 0.003 0.449v-0.023 380.16h-99.413v-380.16c0.002-0.127 0.002-0.277 0.002-0.427 0-20.501-16.619-37.12-37.12-37.12-0.001 0-0.002 0-0.003 0h-64.853c-0.001 0-0.002 0-0.002 0-20.501 0-37.12 16.619-37.12 37.12 0 0.15 0.001 0.3 0.003 0.449v-0.023 380.16h-104.533v-380.16c0.002-0.128 0.002-0.278 0.002-0.429 0-20.501-16.619-37.12-37.12-37.12-0.151 0-0.302 0.001-0.452 0.003h-64.83c-0.001 0-0.002 0-0.002 0-20.501 0-37.12 16.619-37.12 37.12 0 0.15 0.001 0.3 0.003 0.449v-0.023 380.16h-52.907c-58.027 0-82.347 61.44-35.84 90.453l330.24 203.093c20.505 12.833 45.417 20.443 72.107 20.443s51.602-7.611 72.685-20.78l-0.578 0.337 330.24-203.093c46.507-29.013 24.32-90.453-35.84-90.453zM938.667 21.333c0 17.673-14.327 32-32 32v0h-804.693c-17.673 0-32-14.327-32-32s14.327-32 32-32v0h804.267c0.001 0 0.002 0 0.003 0 17.759 0 32.183 14.276 32.424 31.977v0.023z" />
<glyph unicode="&#xe95a;" glyph-name="barcode" d="M710.827 826.027h-396.373c-127.938-6.215-229.314-111.455-229.314-240.373 0-3.395 0.070-6.774 0.21-10.135l-0.016 0.481v-258.133c-0.241-4.029-0.378-8.741-0.378-13.485 0-128.983 101.478-234.264 228.951-240.361l0.547-0.021h396.373c127.463 7.048 228.154 112.125 228.154 240.721 0 4.324-0.114 8.621-0.339 12.889l0.025-0.597v258.987c0.115 2.778 0.18 6.038 0.18 9.313 0 128.548-100.617 233.596-227.392 240.685l-0.628 0.028zM298.667 274.347c0.008-0.268 0.013-0.583 0.013-0.899 0-16.842-13.186-30.603-29.798-31.524l-0.082-0.004c-16.654 0.691-29.894 14.36-29.894 31.121 0 0.459 0.010 0.916 0.030 1.37l-0.002-0.065v360.533c-0.017 0.389-0.027 0.846-0.027 1.305 0 16.761 13.24 30.43 29.832 31.119l0.062 0.002c16.693-0.924 29.879-14.686 29.879-31.528 0-0.316-0.005-0.631-0.014-0.945l0.001 0.046zM426.667 274.347c0-16.495-13.372-29.867-29.867-29.867s-29.867 13.372-29.867 29.867v0 180.053c0 16.495 13.372 29.867 29.867 29.867s29.867-13.372 29.867-29.867v0zM426.667 573.013c0-16.495-13.372-29.867-29.867-29.867s-29.867 13.372-29.867 29.867v0 61.867c0 16.495 13.372 29.867 29.867 29.867s29.867-13.372 29.867-29.867v0zM554.667 274.347c0-16.495-13.372-29.867-29.867-29.867s-29.867 13.372-29.867 29.867v0 360.533c0 16.495 13.372 29.867 29.867 29.867s29.867-13.372 29.867-29.867v0zM682.667 284.587c0-16.495-13.372-29.867-29.867-29.867s-29.867 13.372-29.867 29.867v0 62.293c0 16.495 13.372 29.867 29.867 29.867s29.867-13.372 29.867-29.867v0zM682.667 465.067c0-16.495-13.372-29.867-29.867-29.867s-29.867 13.372-29.867 29.867v0 180.053c0 16.495 13.372 29.867 29.867 29.867s29.867-13.372 29.867-29.867v0zM810.667 274.347c0-16.495-13.372-29.867-29.867-29.867s-29.867 13.372-29.867 29.867v360.533c0 16.495 13.372 29.867 29.867 29.867s29.867-13.372 29.867-29.867v0z" />
</font>
</defs>
</svg>
